<?xml version="1.0" standalone="no"?>
<!DOCTYPE svg PUBLIC "-//W3C//DTD SVG 1.1//EN" "http://www.w3.org/Graphics/SVG/1.1/DTD/svg11.dtd">
<svg xmlns="http://www.w3.org/2000/svg">
<defs >
<font id="Inter" horiz-adv-x="1838" ><font-face
    font-family="Inter ExtraBold"
    units-per-em="2816"
    panose-1="2 11 5 2 3 0 0 0 0 4"
    ascent="2728"
    descent="-680"
    alphabetic="0" />
<glyph unicode=" " glyph-name="uni0020" horiz-adv-x="606" />
<glyph unicode="!" glyph-name="uni0021" horiz-adv-x="957" d="M730 2048L684 627H273L227 2048H730ZM478 -29Q371 -29 295 47T218 231Q218 337 294 412T478 488Q581 488 659 413T738 231Q738 159 702 100T607 6T478 -29Z" />
<glyph unicode="&quot;" glyph-name="uni0022" horiz-adv-x="1094" d="M452 2048V1245H120V2048H452ZM970 2048V1245H638V2048H970Z" />
<glyph unicode="#" glyph-name="uni0023" horiz-adv-x="1846" d="M935 0L1271 2048H1631L1295 0H935ZM22 488L83 848H1707L1646 488H22ZM215 0L551 2048H911L575 0H215ZM139 1200L200 1560H1824L1763 1200H139Z" />
<glyph unicode="$" glyph-name="uni0024" horiz-adv-x="1860" d="M806 -256L838 2304H1098L1066 -256H806ZM1262 1434Q1252 1544 1174 1605T950 1667Q854 1667 790 1642T694 1574T661 1474Q659 1428 679 1393T739 1332T835 1285T961 1250L1137 1210Q1289 1177
1405 1122T1601 991T1722 816T1764 594Q1763 400 1666 261T1388 48T950 -26Q693 -26 502 51T205 285T96 682H570Q576 583 623 517T752 417T944 383Q1044 383 1114 410T1223 485T1262 595Q1261 653 1226 694T1119 766T934 823L720 873Q454 934 301 1070T149 1440Q148
1630 251 1773T536 1996T951 2076Q1189 2076 1364 1996T1637 1770T1736 1434H1262Z" />
<glyph unicode="%" glyph-name="uni0025" horiz-adv-x="2464" d="M1298 384V492Q1298 618 1352 725T1511 897T1765 962Q1918 962 2023 898T2181 727T2234 492V384Q2235 258 2181 151T2022 -21T1765 -86Q1613 -86 1510 -21T1352 151T1298 384ZM1617 492V384Q1618
320 1649 261T1765 202Q1852 202 1883 259T1912 384V492Q1914 559 1885 618T1765 678Q1681 678 1650 619T1617 492ZM236 1556V1664Q237 1792 292 1898T451 2069T703 2134Q856 2134 961 2070T1120 1899T1173 1664V1556Q1174 1428 1120 1322T960 1153T703 1090Q552
1090 448 1154T291 1324T236 1556ZM558 1664V1556Q560 1489 590 1432T703 1374Q791 1374 821 1431T850 1556V1664Q852 1731 823 1790T703 1850Q619 1850 590 1789T558 1664ZM341 0L1749 2048H2022L614 0H341Z" />
<glyph unicode="&amp;" glyph-name="uni0026" horiz-adv-x="1931" d="M799 -31Q583 -31 427 46T186 253T102 544Q102 662 148 752T277 919T470 1070L900 1345Q973 1391 1003 1442T1034 1544Q1034 1599 992 1644T866 1688Q813 1688 774 1666T714 1607T692 1523Q692
1462 727 1398T821 1262T954 1103L1935 0H1437L616 891Q546 969 469 1066T339 1278T286 1530Q286 1683 358 1807T560 2004T865 2078Q1033 2078 1155 2009T1343 1826T1409 1576Q1409 1432 1338 1312T1137 1098L716 797Q649 749 611 695T573 576Q573 510 604 461T694
384T830 356Q934 356 1038 405T1228 545T1366 760T1418 1034H1812Q1812 850 1773 693T1657 411T1465 204Q1429 184 1395 166T1325 128Q1207 43 1070 6T799 -31Z" />
<glyph unicode="&apos;" glyph-name="uni0027" horiz-adv-x="576" d="M452 2048V1245H120V2048H452Z" />
<glyph unicode="(" glyph-name="uni0028" horiz-adv-x="1196" d="M252 806Q252 1177 352 1488T664 2067H1138Q1058 1968 989 1826T870 1515T791 1165T762 806Q762 570 811 330T945 -116T1138 -454H664Q452 -187 352 124T252 806Z" />
<glyph unicode=")" glyph-name="uni0029" horiz-adv-x="1196" d="M944 806Q944 436 844 125T532 -454H58Q139 -355 207 -213T326 98T405 448T434 806Q434 1043 385 1283T251 1729T58 2067H532Q744 1800 844 1489T944 806Z" />
<glyph unicode="*" glyph-name="uni002A" horiz-adv-x="1651" d="M678 896L707 1266L399 1055L252 1313L586 1472L252 1631L399 1889L707 1678L678 2048H973L944 1678L1252 1889L1399 1631L1065 1472L1399 1313L1252 1055L944 1266L973 896H678Z" />
<glyph unicode="+" glyph-name="uni002B" horiz-adv-x="1933" d="M765 102V1550H1168V102H765ZM242 624V1027H1690V624H242Z" />
<glyph unicode="," glyph-name="uni002C" horiz-adv-x="874" d="M654 280L645 169Q633 31 597 -100T519 -337T454 -500H146Q162 -442 189 -337T241 -100T268 168L270 280H654Z" />
<glyph unicode="-" glyph-name="uni002D" horiz-adv-x="1328" d="M1138 1017V640H190V1017H1138Z" />
<glyph unicode="." glyph-name="uni002E" horiz-adv-x="859" d="M430 -29Q322 -29 246 47T170 231Q169 337 245 412T430 488Q532 488 610 413T690 231Q689 159 653 100T558 6T430 -29Z" />
<glyph unicode="/" glyph-name="uni002F" horiz-adv-x="1129" d="M1103 2144L443 -308H26L686 2144H1103Z" />
<glyph unicode="0" glyph-name="uni0030" horiz-adv-x="1997" d="M998 -50Q730 -50 536 77T237 444T133 1021Q134 1358 238 1593T536 1952T998 2076Q1266 2076 1460 1953T1760 1593T1864 1021Q1864 683 1759 443T1461 77T998 -50ZM998 355Q1158 355 1257 518T1355
1021Q1355 1243 1310 1387T1185 1603T998 1674Q839 1674 741 1514T642 1021Q641 796 685 648T811 428T998 355Z" />
<glyph unicode="1" glyph-name="uni0031" horiz-adv-x="1401" d="M1098 2048V0H604V1586H592L134 1306V1734L639 2048H1098Z" />
<glyph unicode="2" glyph-name="uni0032" horiz-adv-x="1797" d="M151 0V356L898 1010Q982 1086 1041 1149T1131 1277T1162 1418Q1162 1503 1125 1563T1023 1657T874 1690Q789 1690 725 1656T626 1556T590 1398H121Q121 1607 215 1759T479 1993T876 2076Q1109
2076 1281 1998T1547 1781T1642 1457Q1642 1340 1595 1225T1427 971T1082 638L837 412V399H1667V0H151Z" />
<glyph unicode="3" glyph-name="uni0033" horiz-adv-x="1878" d="M930 -28Q696 -28 516 52T231 275T125 602H623Q626 535 666 484T775 403T932 374Q1020 374 1087 405T1193 492T1230 620Q1231 692 1189 748T1071 835T890 866H691V1218H890Q981 1218 1050 1248T1159
1332T1197 1458Q1198 1527 1165 1579T1072 1661T934 1690Q852 1690 786 1661T680 1579T639 1456H166Q168 1639 268 1778T540 1997T934 2076Q1154 2076 1321 1999T1581 1790T1674 1490Q1675 1317 1562 1205T1270 1067V1051Q1508 1023 1629 897T1750 582Q1750 404
1646 267T1356 51T930 -28Z" />
<glyph unicode="4" glyph-name="uni0034" horiz-adv-x="1942" d="M126 340V726L965 2048H1308V1524H1109L618 746V730H1833V340H126ZM1115 0V458L1125 627V2048H1588V0H1115Z" />
<glyph unicode="5" glyph-name="uni0035" horiz-adv-x="1850" d="M935 -28Q711 -28 537 53T263 276T158 602H638Q644 489 730 421T935 352Q1028 352 1100 393T1213 508T1253 680Q1254 779 1213 853T1099 968T932 1010Q843 1011 764 971T643 862L206 944L295 2048H1609V1649H702L655
1166H667Q718 1251 831 1306T1090 1362Q1274 1362 1418 1277T1646 1040T1730 694Q1730 483 1631 320T1353 65T935 -28Z" />
<glyph unicode="6" glyph-name="uni0036" horiz-adv-x="1894" d="M972 -28Q804 -28 651 26T378 200T189 514T119 989Q120 1245 181 1447T355 1792T627 2008T982 2083Q1197 2083 1361 2000T1625 1774T1742 1456H1255Q1233 1559 1159 1610T982 1662Q794 1662 702
1498T607 1055H620Q662 1147 741 1213T922 1314T1140 1350Q1324 1350 1465 1265T1686 1033T1765 695Q1766 481 1665 318T1386 63T972 -28ZM969 352Q1060 352 1132 395T1245 512T1285 679Q1286 773 1246 846T1134 962T970 1005Q903 1005 845 980T745 911T678 807T653
678Q654 587 695 513T807 396T969 352Z" />
<glyph unicode="7" glyph-name="uni0037" horiz-adv-x="1698" d="M238 0L1064 1636V1649H98V2048H1576V1646L747 0H238Z" />
<glyph unicode="8" glyph-name="uni0038" horiz-adv-x="1902" d="M951 -28Q712 -28 525 48T231 256T124 554Q124 681 185 787T350 963T584 1054V1070Q415 1101 308 1227T200 1522Q200 1682 297 1807T564 2004T951 2076Q1168 2076 1337 2004T1604 1807T1702 1522Q1702
1352 1594 1227T1318 1070V1054Q1446 1034 1550 964T1716 787T1778 554Q1778 388 1671 257T1378 49T951 -28ZM951 323Q1042 323 1111 357T1219 454T1259 594Q1259 674 1219 736T1110 833T951 869Q863 869 793 834T683 736T643 594Q643 516 682 455T791 358T951
323ZM951 1218Q1029 1218 1089 1250T1184 1339T1219 1468Q1219 1540 1185 1595T1090 1681T951 1713Q873 1713 812 1682T717 1595T683 1468Q683 1396 717 1340T813 1251T951 1218Z" />
<glyph unicode="9" glyph-name="uni0039" horiz-adv-x="1894" d="M922 2083Q1090 2083 1243 2029T1516 1855T1705 1541T1774 1066Q1774 810 1713 608T1539 263T1267 47T912 -28Q696 -28 532 55T269 281T151 599H638Q661 497 735 446T912 394Q1100 394 1193 557T1286
1000H1274Q1231 908 1153 842T971 741T754 706Q570 706 429 790T208 1022T129 1360Q128 1574 228 1737T507 1992T922 2083ZM925 1703Q833 1703 762 1660T649 1543T609 1376Q608 1283 648 1210T760 1093T923 1050Q991 1050 1048 1075T1149 1145T1216 1248T1241 1377Q1240
1468 1199 1542T1087 1659T925 1703Z" />
<glyph unicode=":" glyph-name="uni003A" horiz-adv-x="859" d="M430 -29Q322 -29 246 47T170 231Q169 337 245 412T430 488Q532 488 610 413T690 231Q689 159 653 100T558 6T430 -29ZM430 1025Q322 1025 246 1101T170 1285Q169 1391 245 1466T430 1542Q532 1542
610 1467T690 1285Q689 1213 653 1154T558 1060T430 1025Z" />
<glyph unicode=";" glyph-name="uni003B" horiz-adv-x="868" d="M654 280L645 169Q633 31 597 -100T519 -337T454 -500H146Q162 -442 189 -337T241 -100T268 168L270 280H654ZM466 1025Q358 1025 282 1101T206 1285Q205 1391 281 1466T466 1542Q568 1542 646 1467T726
1285Q725 1213 689 1154T594 1060T466 1025Z" />
<glyph unicode="&lt;" glyph-name="uni003C" horiz-adv-x="1933" d="M242 618V1034L1690 1642V1187L734 830L749 852V799L734 822L1690 464V10L242 618Z" />
<glyph unicode="=" glyph-name="uni003D" horiz-adv-x="1933" d="M251 969V1370H1682V969H251ZM251 281V682H1682V281H251Z" />
<glyph unicode="&gt;" glyph-name="uni003E" horiz-adv-x="1933" d="M1690 618L242 10V464L1198 822L1184 799V852L1198 830L242 1187V1642L1690 1034V618Z" />
<glyph unicode="?" glyph-name="uni003F" horiz-adv-x="1636" d="M540 627V668Q540 838 568 939T652 1101T786 1214Q849 1254 898 1295T977 1385T1006 1494Q1006 1553 978 1598T902 1667T794 1692Q735 1692 684 1665T600 1589T566 1469H106Q109 1679 203 1813T454
2011T798 2076Q1004 2076 1164 2012T1417 1823T1509 1517Q1509 1398 1469 1307T1358 1147T1190 1020Q1115 976 1066 928T991 819T966 668V627H540ZM761 -29Q653 -29 577 47T501 231Q500 337 576 412T761 488Q864 488 942 413T1021 231Q1020 159 984 100T889 6T761
-29Z" />
<glyph unicode="@" glyph-name="uni0040" horiz-adv-x="2991" d="M1550 -607Q1226 -607 972 -520T542 -264T274 146T181 695Q182 1000 274 1250T545 1682T983 1963T1576 2062Q1880 2062 2122 1976T2534 1728T2795 1337T2884 820Q2885 623 2846 467T2728 200T2528
26T2244 -50Q2112 -61 2044 -34T1948 44T1909 160H1897Q1874 99 1797 52T1612 -20T1392 -38Q1278 -30 1170 16T976 153T839 382T787 707Q788 894 839 1028T974 1252T1158 1391T1354 1456Q1470 1476 1578 1459T1760 1404T1853 1322H1868V1434H2214V434Q2216 369
2240 340T2302 311Q2360 311 2404 368T2473 545T2497 850Q2498 1056 2444 1202T2296 1445T2085 1595T1834 1672T1574 1694Q1319 1694 1133 1618T825 1406T644 1094T583 713Q584 482 649 305T840 7T1151 -174T1577 -236Q1694 -236 1805 -221T2007 -183T2158 -135L2272
-460Q2209 -499 2099 -532T1847 -586T1550 -607ZM1526 333Q1645 333 1714 377T1812 509T1838 722Q1838 826 1812 906T1718 1032T1522 1078Q1412 1078 1336 1035T1219 912T1178 719Q1178 620 1211 532T1320 388T1526 333Z" />
<glyph unicode="A" glyph-name="uni0041" horiz-adv-x="2173" d="M598 0H66L757 2048H1416L2107 0H1575L1094 1532H1078L598 0ZM527 806H1639V430H527V806Z" />
<glyph unicode="B" glyph-name="uni0042" horiz-adv-x="1870" d="M155 0V2048H1009Q1239 2048 1394 1983T1628 1801T1707 1530Q1707 1413 1658 1322T1523 1170T1324 1086V1066Q1448 1060 1553 999T1723 830T1787 573Q1787 408 1703 279T1460 75T1074 0H155ZM650
399H956Q1117 399 1193 460T1270 630Q1270 709 1233 766T1128 855T965 887H650V399ZM650 1206H924Q1005 1206 1068 1233T1166 1311T1202 1434Q1202 1537 1129 1596T932 1655H650V1206Z" />
<glyph unicode="C" glyph-name="uni0043" horiz-adv-x="2141" d="M2014 1306H1514Q1504 1383 1473 1445T1391 1551T1271 1618T1117 1642Q968 1642 861 1569T696 1358T638 1024Q638 820 696 683T861 476T1114 406Q1196 406 1263 427T1382 488T1467 587T1514 720L2014
717Q2001 581 1936 449T1756 209T1479 36T1104 -28Q826 -28 607 94T260 452T133 1024Q133 1362 262 1597T611 1954T1104 2076Q1290 2076 1448 2025T1726 1875T1921 1633T2014 1306Z" />
<glyph unicode="D" glyph-name="uni0044" horiz-adv-x="2056" d="M912 0H155V2048H911Q1224 2048 1450 1926T1800 1574T1923 1025Q1923 705 1801 475T1451 123T912 0ZM650 422H893Q1065 422 1184 480T1365 671T1427 1025Q1427 1246 1365 1377T1183 1567T886 1626H650V422Z"
/>
<glyph unicode="E" glyph-name="uni0045" horiz-adv-x="1738" d="M155 0V2048H1583V1646H650V1226H1510V823H650V402H1583V0H155Z" />
<glyph unicode="F" glyph-name="uni0046" horiz-adv-x="1646" d="M155 0V2048H1553V1646H650V1226H1464V823H650V0H155Z" />
<glyph unicode="G" glyph-name="uni0047" horiz-adv-x="2159" d="M1499 1379Q1482 1442 1449 1490T1368 1573T1258 1624T1122 1642Q973 1642 865 1570T697 1361T638 1027Q638 830 695 691T860 479T1122 406Q1258 406 1352 450T1496 577T1545 770L1637 759H1139V1120H2022V849Q2022
574 1906 378T1586 77T1118 -28Q825 -28 603 99T257 461T133 1021Q133 1273 208 1468T417 1800T729 2006T1112 2076Q1290 2076 1443 2025T1715 1881T1908 1660T2000 1379H1499Z" />
<glyph unicode="H" glyph-name="uni0048" horiz-adv-x="2106" d="M155 0V2048H650V1226H1457V2048H1951V0H1457V823H650V0H155Z" />
<glyph unicode="I" glyph-name="uni0049" horiz-adv-x="805" d="M650 2048V0H155V2048H650Z" />
<glyph unicode="J" glyph-name="uni004A" horiz-adv-x="1630" d="M987 2048H1475V632Q1474 433 1380 285T1121 54T738 -28Q546 -28 390 39T141 247T49 608H542Q545 529 572 474T649 390T766 362Q837 362 886 392T960 483T987 632V2048Z" />
<glyph unicode="K" glyph-name="uni004B" horiz-adv-x="1977" d="M155 0V2048H650V1182H677L1354 2048H1937L1211 1134L1950 0H1358L848 805L650 555V0H155Z" />
<glyph unicode="L" glyph-name="uni004C" horiz-adv-x="1603" d="M155 0V2048H650V402H1502V0H155Z" />
<glyph unicode="M" glyph-name="uni004D" horiz-adv-x="2600" d="M155 2048H768L1288 780H1312L1832 2048H2445V0H1963V1258H1946L1454 13H1146L654 1265H637V0H155V2048Z" />
<glyph unicode="N" glyph-name="uni004E" horiz-adv-x="2053" d="M1898 2048V0H1478L663 1182H650V0H155V2048H581L1387 868H1404V2048H1898Z" />
<glyph unicode="O" glyph-name="uni004F" horiz-adv-x="2221" d="M2088 1024Q2088 686 1958 451T1607 94T1110 -28Q834 -28 613 95T263 452T133 1024Q133 1362 262 1597T613 1954T1110 2076Q1385 2076 1606 1954T1958 1597T2088 1024ZM1582 1024Q1582 1224 1526
1362T1364 1571T1110 1642Q963 1642 857 1571T695 1362T638 1024Q638 824 694 686T857 477T1110 406Q1258 406 1363 477T1525 686T1582 1024Z" />
<glyph unicode="P" glyph-name="uni0050" horiz-adv-x="1836" d="M155 0V2048H1001Q1231 2048 1398 1959T1657 1710T1748 1339Q1748 1127 1656 969T1392 723T986 636H464V1026H894Q1006 1026 1081 1065T1196 1174T1235 1339Q1235 1434 1196 1503T1081 1611T894
1649H650V0H155Z" />
<glyph unicode="Q" glyph-name="uni0051" horiz-adv-x="2224" d="M938 736H1338L1508 519L1731 263L2074 -160H1626L1386 127L1244 331L938 736ZM2088 1024Q2088 686 1958 451T1607 94T1110 -28Q834 -28 613 95T263 452T133 1024Q133 1362 262 1597T613 1954T1110
2076Q1385 2076 1606 1954T1958 1597T2088 1024ZM1582 1024Q1582 1224 1526 1362T1364 1571T1110 1642Q963 1642 857 1571T695 1362T638 1024Q638 824 694 686T857 477T1110 406Q1258 406 1363 477T1525 686T1582 1024Z" />
<glyph unicode="R" glyph-name="uni0052" horiz-adv-x="1864" d="M155 0V2048H1001Q1231 2048 1398 1966T1657 1730T1748 1366Q1748 1153 1655 1005T1391 779T986 701H451V1091H894Q1006 1091 1081 1120T1196 1210T1235 1366Q1235 1461 1196 1523T1081 1617T894
1649H650V0H155ZM1308 936L1818 0H1278L778 936H1308Z" />
<glyph unicode="S" glyph-name="uni0053" horiz-adv-x="1860" d="M1262 1434Q1252 1544 1174 1605T950 1667Q854 1667 790 1642T694 1574T661 1474Q659 1428 679 1393T739 1332T835 1285T961 1250L1137 1210Q1289 1177 1405 1122T1601 991T1722 816T1764 594Q1763
400 1666 261T1388 48T950 -26Q693 -26 502 51T205 285T96 682H570Q576 583 623 517T752 417T944 383Q1044 383 1114 410T1223 485T1262 595Q1261 653 1226 694T1119 766T934 823L720 873Q454 934 301 1070T149 1440Q148 1630 251 1773T536 1996T951 2076Q1189
2076 1364 1996T1637 1770T1736 1434H1262Z" />
<glyph unicode="T" glyph-name="uni0054" horiz-adv-x="1907" d="M88 1646V2048H1819V1646H1198V0H710V1646H88Z" />
<glyph unicode="U" glyph-name="uni0055" horiz-adv-x="2043" d="M1394 2048H1888V727Q1888 498 1779 329T1475 67T1022 -26Q761 -26 566 66T263 328T155 727V2048H650V770Q650 664 696 581T827 451T1022 404Q1133 404 1216 451T1347 581T1394 770V2048Z" />
<glyph unicode="V" glyph-name="uni0056" horiz-adv-x="2173" d="M620 2048L1078 548H1095L1553 2048H2107L1416 0H757L66 2048H620Z" />
<glyph unicode="W" glyph-name="uni0057" horiz-adv-x="2998" d="M646 0L50 2048H597L906 706H923L1276 2048H1722L2075 703H2092L2402 2048H2948L2353 0H1876L1507 1242H1491L1122 0H646Z" />
<glyph unicode="X" glyph-name="uni0058" horiz-adv-x="2080" d="M656 2048L1030 1401H1046L1424 2048H1978L1360 1024L1998 0H1430L1046 654H1030L646 0H82L717 1024L98 2048H656Z" />
<glyph unicode="Y" glyph-name="uni0059" horiz-adv-x="2096" d="M53 2048H606L1039 1191H1057L1490 2048H2043L1294 684V0H802V684L53 2048Z" />
<glyph unicode="Z" glyph-name="uni005A" horiz-adv-x="1917" d="M148 0V282L1143 1646H149V2048H1769V1766L774 402H1768V0H148Z" />
<glyph unicode="[" glyph-name="uni005B" horiz-adv-x="1196" d="M287 -454V2067H1142V1708H761V-95H1142V-454H287Z" />
<glyph unicode="\" glyph-name="uni005C" horiz-adv-x="1129" d="M26 2144H443L1103 -308H686L26 2144Z" />
<glyph unicode="]" glyph-name="uni005D" horiz-adv-x="1196" d="M909 2067V-454H54V-95H435V1708H54V2067H909Z" />
<glyph unicode="^" glyph-name="uni005E" horiz-adv-x="1390" d="M659 1811H731V1698H659V1811ZM86 1120L511 2010H879L1304 1120H953L686 1738H704L438 1120H86Z" />
<glyph unicode="_" glyph-name="uni005F" horiz-adv-x="1365" d="M1366 0V-358H-1V0H1366Z" />
<glyph unicode="`" glyph-name="uni0060" horiz-adv-x="1400" d="M685 1731L382 2182H815L1018 1731H685Z" />
<glyph unicode="a" glyph-name="uni0061" horiz-adv-x="1649" d="M588 -26Q441 -26 328 23T149 173T83 426Q83 554 128 642T252 785T434 868T654 907Q785 919 865 932T981 971T1018 1044V1049Q1018 1126 965 1168T822 1210Q725 1210 666 1168T591 1052L140 1068Q160
1208 243 1318T473 1492T826 1556Q973 1556 1097 1522T1313 1422T1455 1261T1506 1044V0H1046V214H1034Q993 136 930 82T781 1T588 -26ZM739 294Q818 294 881 326T983 414T1021 546V692Q1000 681 971 672T906 655T834 641T763 630Q694 619 646 596T572 537T546
450Q546 374 600 334T739 294Z" />
<glyph unicode="b" glyph-name="uni0062" horiz-adv-x="1802" d="M155 0V2048H644V1273H654Q684 1343 739 1408T881 1514T1089 1556Q1249 1556 1388 1472T1614 1213T1700 767Q1700 506 1618 330T1396 66T1086 -22Q970 -22 885 16T743 116T654 249H639V0H155ZM634
768Q634 644 667 552T764 410T917 359Q1007 359 1070 409T1165 552T1198 768Q1198 892 1166 983T1071 1124T917 1174Q827 1174 764 1125T668 985T634 768Z" />
<glyph unicode="c" glyph-name="uni0063" horiz-adv-x="1681" d="M872 -29Q629 -29 456 71T189 349T96 763Q96 999 189 1177T456 1456T871 1556Q1084 1556 1242 1479T1490 1262T1585 932H1128Q1114 1050 1049 1117T878 1184Q793 1184 729 1137T630 997T594 768Q594
632 629 539T729 398T878 350Q946 350 998 379T1085 464T1128 602H1585Q1578 412 1491 270T1246 50T872 -29Z" />
<glyph unicode="d" glyph-name="uni0064" horiz-adv-x="1802" d="M716 -22Q546 -22 407 66T185 330T102 767Q102 1038 188 1213T413 1472T714 1556Q835 1556 921 1515T1063 1408T1148 1273H1158V2048H1647V0H1163V249H1148Q1117 178 1060 116T918 16T716 -22ZM886
359Q975 359 1038 409T1135 552T1169 768Q1169 894 1136 985T1039 1125T886 1174Q795 1174 732 1124T637 983T604 768Q604 644 637 552T732 410T886 359Z" />
<glyph unicode="e" glyph-name="uni0065" horiz-adv-x="1698" d="M873 -29Q632 -29 458 66T190 339T96 762Q96 1000 190 1178T455 1456T858 1556Q1022 1556 1158 1505T1393 1354T1547 1108T1602 772V650H267V934H1147Q1146 1012 1110 1073T1012 1168T868 1203Q786
1203 721 1167T618 1068T578 926V637Q578 543 615 473T720 363T882 324Q947 324 1000 342T1091 395T1148 481L1597 468Q1569 317 1475 206T1227 33T873 -29Z" />
<glyph unicode="f" glyph-name="uni0066" horiz-adv-x="1109" d="M1028 1536V1176H40V1536H1028ZM246 0V1614Q246 1792 313 1909T499 2085T774 2144Q876 2144 966 2129T1101 2101L1023 1743Q996 1752 958 1758T885 1764Q799 1764 767 1726T735 1622V0H246Z" />
<glyph unicode="g" glyph-name="uni0067" horiz-adv-x="1806" d="M871 -595Q652 -595 496 -535T251 -372T144 -140L607 -114Q620 -155 655 -187T748 -237T884 -256Q1007 -256 1087 -198T1168 -2V268H1151Q1122 197 1063 141T917 53T716 21Q548 21 409 99T186 343T102
770Q102 1039 188 1213T413 1472T714 1556Q835 1556 921 1515T1064 1408T1149 1273H1163V1536H1650V-6Q1650 -195 1552 -326T1278 -526T871 -595ZM886 377Q975 377 1038 424T1135 559T1169 770Q1169 895 1136 985T1039 1125T886 1174Q795 1174 732 1124T637 984T604
770Q604 647 637 559T732 424T886 377Z" />
<glyph unicode="h" glyph-name="uni0068" horiz-adv-x="1789" d="M644 876V0H155V2048H628V1254H645Q697 1396 815 1476T1106 1556Q1268 1556 1388 1485T1574 1283T1640 979V0H1151V883Q1152 1011 1087 1083T904 1155Q827 1155 769 1122T678 1026T644 876Z" />
<glyph unicode="i" glyph-name="uni0069" horiz-adv-x="799" d="M155 0V1536H644V0H155ZM657 1715Q553 1715 479 1783T405 1949Q405 2045 479 2113T656 2182Q760 2182 833 2114T907 1949Q907 1852 834 1784T657 1715Z" />
<glyph unicode="j" glyph-name="uni006A" horiz-adv-x="799" d="M155 1536H644V-58Q644 -248 567 -362T346 -526T6 -570Q-14 -569 -34 -569T-84 -566V-196Q-66 -198 -52 -198T-24 -199Q77 -199 116 -162T155 -48V1536ZM656 1715Q552 1715 478 1783T404 1949Q404
2045 478 2113T655 2182Q759 2182 832 2114T906 1949Q906 1852 833 1784T656 1715Z" />
<glyph unicode="k" glyph-name="uni006B" horiz-adv-x="1673" d="M596 403L598 986H666L1098 1536H1652L1010 748H881L596 403ZM155 0V2048H644V0H155ZM1109 0L707 638L1029 985L1674 0H1109Z" />
<glyph unicode="l" glyph-name="uni006C" horiz-adv-x="799" d="M644 2048V0H155V2048H644Z" />
<glyph unicode="m" glyph-name="uni006D" horiz-adv-x="2608" d="M155 0V1536H620V1254H637Q685 1394 799 1475T1071 1556Q1231 1556 1345 1474T1490 1254H1506Q1549 1391 1674 1473T1969 1556Q2187 1556 2323 1417T2459 1034V0H1970V922Q1970 1037 1911 1097T1758
1158Q1657 1158 1600 1093T1542 917V0H1072V927Q1072 1034 1014 1096T861 1158Q797 1158 748 1128T672 1041T644 909V0H155Z" />
<glyph unicode="n" glyph-name="uni006E" horiz-adv-x="1786" d="M644 876V0H155V1536H620V1254H637Q688 1395 811 1475T1104 1556Q1266 1556 1385 1484T1571 1282T1637 979V0H1148V883Q1149 1011 1084 1083T902 1155Q825 1155 767 1122T677 1026T644 876Z" />
<glyph unicode="o" glyph-name="uni006F" horiz-adv-x="1744" d="M872 -29Q630 -29 457 70T190 348T96 763Q96 1000 189 1178T456 1456T872 1556Q1114 1556 1287 1457T1554 1179T1648 763Q1648 527 1555 349T1288 71T872 -29ZM875 340Q963 340 1024 394T1117 544T1150
766Q1150 894 1118 990T1024 1140T875 1194Q784 1194 722 1140T627 990T594 766Q594 640 626 544T721 394T875 340Z" />
<glyph unicode="p" glyph-name="uni0070" horiz-adv-x="1802" d="M155 -576V1536H639V1273H654Q684 1343 739 1408T881 1514T1089 1556Q1249 1556 1388 1472T1614 1213T1700 767Q1700 506 1618 330T1396 66T1086 -22Q970 -22 885 16T743 116T654 249H644V-576H155ZM634
768Q634 644 667 552T764 410T917 359Q1007 359 1070 409T1165 552T1198 768Q1198 892 1166 983T1071 1124T917 1174Q827 1174 764 1125T668 985T634 768Z" />
<glyph unicode="q" glyph-name="uni0071" horiz-adv-x="1802" d="M1647 -576H1158V249H1148Q1117 178 1060 116T918 16T716 -22Q546 -22 407 66T185 330T102 767Q102 1038 188 1213T413 1472T714 1556Q835 1556 921 1515T1063 1408T1148 1273H1163V1536H1647V-576ZM1169
768Q1169 894 1136 985T1039 1125T886 1174Q795 1174 732 1124T637 983T604 768Q604 644 637 552T732 410T886 359Q975 359 1038 409T1135 552T1169 768Z" />
<glyph unicode="r" glyph-name="uni0072" horiz-adv-x="1186" d="M155 0V1536H630V1256H646Q688 1408 783 1482T1004 1557Q1038 1557 1074 1553T1141 1539V1114Q1106 1126 1050 1133T949 1140Q862 1140 793 1102T684 995T644 834V0H155Z" />
<glyph unicode="s" glyph-name="uni0073" horiz-adv-x="1619" d="M1496 1067L1047 1055Q1040 1103 1009 1140T929 1199T814 1221Q729 1221 670 1187T611 1095Q610 1050 647 1017T782 964L1078 908Q1308 864 1420 762T1534 492Q1533 334 1441 217T1188 36T822 -29Q493
-29 304 106T87 470L570 482Q586 398 653 354T824 310Q918 310 977 345T1037 438Q1036 490 991 521T850 571L582 622Q351 664 238 777T126 1067Q125 1221 208 1330T444 1498T805 1556Q1117 1556 1297 1426T1496 1067Z" />
<glyph unicode="t" glyph-name="uni0074" horiz-adv-x="1117" d="M1022 1536V1176H53V1536H1022ZM256 1904H745V483Q745 438 759 411T802 372T869 360Q897 360 928 365T976 375L1050 22Q1015 12 952 -3T800 -22Q628 -30 506 18T319 170T256 429V1904Z" />
<glyph unicode="u" glyph-name="uni0075" horiz-adv-x="1790" d="M1146 663V1536H1634V0H1168V286H1152Q1101 145 979 63T683 -20Q526 -20 407 52T222 253T155 557V1536H644V653Q645 528 710 456T887 384Q960 384 1018 416T1111 511T1146 663Z" />
<glyph unicode="v" glyph-name="uni0076" horiz-adv-x="1677" d="M1645 1536L1118 0H558L32 1536H547L830 478H846L1130 1536H1645Z" />
<glyph unicode="w" glyph-name="uni0077" horiz-adv-x="2429" d="M442 0L42 1536H533L740 552H753L975 1536H1454L1682 559H1695L1896 1536H2387L1986 0H1463L1223 895H1206L966 0H442Z" />
<glyph unicode="x" glyph-name="uni0078" horiz-adv-x="1648" d="M571 1536L824 1030L1086 1536H1579L1150 768L1595 0H1106L824 510L549 0H53L499 768L75 1536H571Z" />
<glyph unicode="y" glyph-name="uni0079" horiz-adv-x="1677" d="M454 -574Q366 -574 288 -561T154 -525L262 -170Q370 -205 444 -195T559 -102L578 -56L32 1536H544L827 440H843L1130 1536L1645 1535L1066 -147Q1024 -271 948 -367T751 -519T454 -574Z" />
<glyph unicode="z" glyph-name="uni007A" horiz-adv-x="1639" d="M159 0V279L871 1146V1156H184V1536H1454V1230L794 390V380H1478V0H159Z" />
<glyph unicode="{" glyph-name="uni007B" horiz-adv-x="1196" d="M82 796V1022Q256 1022 323 1091T391 1310V1499Q391 1700 450 1815T613 1984T853 2052T1142 2067V1708Q1022 1708 963 1679T883 1591T863 1442V1186Q863 1110 832 1040T718 915T482 828T82 796ZM1142
-454Q989 -454 853 -440T614 -371T451 -202T391 114V302Q391 453 324 521T82 590V817Q328 817 481 785T718 698T832 573T863 427V171Q863 81 883 22T962 -66T1142 -95V-454ZM82 590V1022H481V590H82Z" />
<glyph unicode="|" glyph-name="uni007C" horiz-adv-x="1096" d="M784 2708V-660H312V2708H784Z" />
<glyph unicode="}" glyph-name="uni007D" horiz-adv-x="1196" d="M1114 817V590Q941 590 873 522T805 302V114Q805 -87 746 -202T583 -371T344 -439T54 -454V-95Q174 -95 233 -66T313 22T333 171V427Q333 503 364 573T478 697T714 784T1114 817ZM54 2067Q208 2067
343 2053T582 1984T745 1815T805 1499V1310Q805 1160 873 1091T1114 1022V796Q868 796 715 828T478 915T364 1040T333 1186V1442Q333 1532 313 1591T234 1679T54 1708V2067ZM1114 1022V590H715V1022H1114Z" />
<glyph unicode="~" glyph-name="uni007E" horiz-adv-x="1933" d="M210 534Q203 732 253 873T405 1089T654 1164Q745 1164 831 1127T1027 993Q1080 947 1118 920T1208 893Q1274 893 1319 946T1360 1121H1723Q1731 924 1679 783T1525 567T1279 491Q1181 491 1094
531T902 662Q844 714 810 738T725 762Q658 762 614 710T573 534H210Z" />
<glyph unicode="&#xa0;" glyph-name="uni00A0" horiz-adv-x="606" />
<glyph unicode="&#xa1;" glyph-name="uni00A1" horiz-adv-x="957" d="M478 1560Q581 1560 659 1484T738 1300Q738 1194 660 1119T478 1043Q371 1043 295 1118T218 1300Q218 1372 253 1431T347 1525T478 1560ZM730 -517H227L273 904H684L730 -517Z" />
<glyph unicode="&#xa2;" glyph-name="uni00A2" horiz-adv-x="1681" d="M776 -256V1780H969V-256H776ZM872 -29Q629 -29 456 71T189 349T96 763Q96 999 189 1177T456 1456T871 1556Q1084 1556 1242 1479T1490 1262T1585 932H1128Q1114 1050 1049 1117T878 1184Q793
1184 729 1137T630 997T594 768Q594 632 629 539T729 398T878 350Q946 350 998 379T1085 464T1128 602H1585Q1578 412 1491 270T1246 50T872 -29Z" />
<glyph unicode="&#xa3;" glyph-name="uni00A3" horiz-adv-x="1930" d="M1735 0H203V402H1735V0ZM1351 822H198V1200H1351V822ZM900 1482L932 637Q937 496 867 410T630 257L350 402Q389 415 408 443T434 513T440 605L409 1482Q402 1670 483 1803T715 2006T1062
2076Q1223 2076 1347 2036T1556 1918T1686 1733T1733 1490L1270 1484Q1269 1562 1242 1606T1169 1668T1067 1686Q1015 1686 978 1664T920 1596T900 1482Z" />
<glyph unicode="&#xa4;" glyph-name="uni00A4" horiz-adv-x="2193" d="M1098 -28Q922 -28 768 37T496 221T313 496T247 836Q246 1019 312 1175T496 1449T767 1631T1098 1696Q1272 1696 1425 1631T1696 1449T1879 1176T1947 836Q1946 653 1880 496T1696 221T1426
38T1098 -28ZM1098 246Q1218 246 1323 291T1509 416T1634 604T1681 836Q1680 1004 1602 1137T1391 1348T1098 1426Q934 1426 802 1349T592 1138T515 836Q514 670 591 536T801 324T1098 246ZM1717 1253L1515 1459L1801 1743L2006 1537L1717 1253ZM1801 -39L1515
245L1717 447L2006 167L1801 -39ZM398 -39L196 167L482 447L687 245L398 -39ZM482 1253L196 1537L398 1743L687 1459L482 1253Z" />
<glyph unicode="&#xa5;" glyph-name="uni00A5" horiz-adv-x="1634" d="M540 2048L930 1052L603 783L40 2048H540ZM710 1065L1094 2048H1594L1027 783L710 1065ZM1053 1079V0H565V1079H1053ZM1443 1068V798H133V1068H1443ZM1443 672V402H133V672H1443Z" />
<glyph unicode="&#xa6;" glyph-name="uni00A6" horiz-adv-x="1046" d="M306 578H740V-384H306V578ZM740 2048V1090H306V2048H740Z" />
<glyph unicode="&#xa7;" glyph-name="uni00A7" horiz-adv-x="1709" d="M1448 1532H1025Q1024 1591 976 1631T836 1672Q796 1672 755 1662T686 1627T659 1555Q659 1511 688 1476T760 1418T840 1382L1222 1221Q1261 1204 1321 1172T1437 1085T1525 949T1546 752Q1536
665 1491 614T1392 536T1304 501L1298 497Q1386 419 1432 324T1479 109Q1479 -52 1399 -169T1179 -349T859 -413Q666 -413 520 -343T292 -148T210 148H634Q633 71 693 29T866 -6Q930 -3 989 22T1050 109Q1050 153 1020 186T950 243T875 282L494 439Q452 456 392
488T276 576T187 714T166 912Q176 1000 219 1051T316 1127T411 1164V1166Q331 1243 282 1338T233 1555Q233 1705 309 1822T522 2008T836 2076Q1019 2076 1156 2006T1370 1812T1448 1532ZM1153 723Q1159 749 1146 776T1097 828T1000 878L685 1003Q652 1016 625 1011T580
988T556 941Q546 902 584 861T710 786L1030 659Q1058 648 1083 653T1127 676T1153 723Z" />
<glyph unicode="&#xa8;" glyph-name="uni00A8" horiz-adv-x="1453" d="M416 1731Q322 1731 256 1795T189 1949Q189 2039 255 2102T416 2166Q509 2166 574 2103T640 1949Q640 1859 575 1795T416 1731ZM1040 1731Q946 1731 880 1795T813 1949Q813 2039 879 2102T1040
2166Q1133 2166 1198 2103T1264 1949Q1264 1859 1199 1795T1040 1731Z" />
<glyph unicode="&#xa9;" glyph-name="uni00A9" horiz-adv-x="2576" d="M741 1024Q741 1177 815 1302T1016 1503T1295 1578Q1429 1578 1543 1519T1731 1357T1820 1126H1504Q1490 1193 1431 1234T1295 1276Q1226 1276 1169 1243T1078 1152T1043 1025Q1043 956 1077
899T1169 807T1295 772Q1372 772 1429 813T1500 922H1816Q1801 793 1729 691T1543 530T1295 470Q1142 470 1016 545T816 745T741 1024ZM1288 -32Q1070 -32 879 50T542 277T314 614T232 1024Q233 1243 315 1434T543 1770T879 1998T1288 2080Q1507 2080 1698 1998T2034
1771T2261 1434T2344 1024Q2345 805 2263 614T2036 278T1699 50T1288 -32ZM1288 334Q1432 334 1557 388T1777 536T1924 755T1978 1023Q1977 1167 1924 1292T1776 1512T1556 1660T1288 1714Q1146 1714 1022 1660T802 1511T653 1291T598 1023Q598 881 651 757T800
537T1020 388T1288 334Z" />
<glyph unicode="&#xaa;" glyph-name="uni00AA" horiz-adv-x="1408" d="M877 1184V1652Q877 1734 837 1781T710 1828Q618 1828 567 1793T515 1692L266 1709Q266 1849 388 1940T710 2032Q898 2032 1012 1937T1126 1652V1220Q1126 1164 1133 1100T1166 969H912Q897
1014 887 1069T877 1184ZM940 1581V1421H734Q611 1421 554 1375T496 1269Q496 1214 536 1182T662 1149Q720 1149 779 1174T879 1237T920 1308L944 1145Q912 1076 829 1014T599 952Q429 952 338 1037T246 1264Q246 1417 366 1499T734 1581H940Z" />
<glyph unicode="&#xab;" glyph-name="uni00AB" horiz-adv-x="1843" d="M1005 220H560L156 820V840H621L1005 220ZM1005 1448L621 828H156V848L560 1448H1005ZM1712 220H1267L863 820V840H1328L1712 220ZM1712 1448L1328 828H863V848L1267 1448H1712Z" />
<glyph unicode="&#xac;" glyph-name="uni00AC" horiz-adv-x="1670" d="M1435 1108V872H242V1108H1435ZM1435 1000V516H1150V1000H1435Z" />
<glyph unicode="&#xad;" glyph-name="uni00AD" horiz-adv-x="1328" d="M1138 1017V640H190V1017H1138Z" />
<glyph unicode="&#xae;" glyph-name="uni00AE" horiz-adv-x="1862" d="M638 916V1654H995Q1073 1654 1133 1624T1227 1539T1261 1407Q1261 1329 1226 1275T1130 1192T988 1163H748V1308H950Q995 1308 1023 1333T1051 1407Q1051 1458 1023 1481T951 1505H840V916H638ZM1118
1254L1281 916H1060L910 1254H1118ZM931 476Q765 476 620 538T365 710T193 965T131 1276Q131 1442 193 1587T365 1842T620 2014T931 2076Q1097 2076 1242 2014T1497 1842T1669 1587T1731 1276Q1731 1110 1669 965T1497 710T1242 538T931 476ZM931 694Q1093 694
1225 772T1435 983T1514 1276Q1514 1437 1436 1569T1225 1779T931 1858Q770 1858 638 1780T428 1569T349 1276Q349 1115 427 983T638 773T931 694Z" />
<glyph unicode="&#xaf;" glyph-name="uni00AF" horiz-adv-x="1699" d="M1343 2048V1806H356V2048H1343Z" />
<glyph unicode="&#xb0;" glyph-name="uni00B0" horiz-adv-x="1299" d="M650 1058Q511 1058 397 1125T216 1307T148 1559Q148 1698 215 1812T397 1993T650 2061Q789 2061 902 1994T1083 1812T1151 1559Q1151 1421 1084 1307T903 1126T650 1058ZM650 1370Q702 1370
745 1395T813 1464T839 1559Q839 1612 814 1655T745 1723T650 1749Q597 1749 554 1724T486 1655T460 1560Q460 1507 485 1464T554 1395T650 1370Z" />
<glyph unicode="&#xb1;" glyph-name="uni00B1" horiz-adv-x="1933" d="M242 70V448H1690V70H242ZM242 910V1275H1690V910H242ZM765 586V1600H1168V586H765Z" />
<glyph unicode="&#xb2;" glyph-name="uni00B2" horiz-adv-x="1197" d="M118 1024V1266L611 1647Q662 1687 701 1720T762 1789T785 1868Q785 1934 730 1968T596 2003Q512 2003 461 1964T410 1846H87Q87 2046 231 2157T600 2268Q754 2268 867 2215T1043 2072T1105
1872Q1105 1782 1068 1705T953 1556T754 1410L602 1310V1299H1112V1024H118Z" />
<glyph unicode="&#xb3;" glyph-name="uni00B3" horiz-adv-x="1257" d="M623 1008Q468 1008 347 1055T156 1187T82 1384H426Q432 1337 487 1312T623 1287Q704 1287 762 1316T821 1402Q821 1455 763 1489T602 1524H447V1774H602Q689 1774 740 1807T791 1890Q791
1942 746 1972T627 2003Q547 2003 492 1974T433 1899H110Q112 2008 181 2091T368 2221T630 2268Q778 2268 888 2220T1058 2091T1118 1912Q1118 1804 1044 1741T866 1664V1653Q1010 1641 1091 1570T1173 1380Q1173 1270 1102 1187T906 1056T623 1008Z" />
<glyph unicode="&#xb4;" glyph-name="uni00B4" horiz-adv-x="1400" d="M525 1731L727 2182H1160L858 1731H525Z" />
<glyph unicode="&#xb5;" glyph-name="uni00B5" horiz-adv-x="1918" d="M155 -550V1536H644V663Q645 581 684 518T795 420T960 384Q1053 384 1124 419T1235 518T1274 663V1536H1763V0H1297V215H1285Q1244 123 1157 71T960 18Q849 18 762 70T634 215H622V-550H155Z" />
<glyph unicode="&#xb6;" glyph-name="uni00B6" horiz-adv-x="1726" d="M1322 1684H954V760H834Q607 760 451 843T214 1072T133 1404Q133 1588 213 1733T450 1963T834 2048H1322V1684ZM1202 0V2048H1571V0H1202Z" />
<glyph unicode="&#xb7;" glyph-name="uni00B7" horiz-adv-x="859" d="M430 637Q322 637 246 713T170 897Q169 1003 245 1078T430 1154Q532 1154 610 1079T690 897Q689 825 653 766T558 672T430 637Z" />
<glyph unicode="&#xb8;" glyph-name="uni00B8" horiz-adv-x="1155" d="M482 8H678L662 -82Q772 -98 838 -161T905 -327Q906 -483 757 -573T341 -664L339 -463Q476 -463 551 -432T629 -338Q632 -280 584 -246T435 -198L482 8Z" />
<glyph unicode="&#xb9;" glyph-name="uni00B9" horiz-adv-x="911" d="M393 1024V1952H386L99 1776V2055L416 2252H713V1024H393Z" />
<glyph unicode="&#xba;" glyph-name="uni00BA" horiz-adv-x="1398" d="M204 1436V1541Q204 1684 265 1795T437 1969T699 2032Q928 2032 1061 1894T1194 1541V1436Q1194 1294 1135 1184T966 1012T703 949Q472 949 338 1086T204 1436ZM454 1541V1436Q454 1313 516
1233T703 1152Q825 1152 885 1232T945 1436V1541Q945 1661 885 1744T699 1828Q577 1828 516 1745T454 1541Z" />
<glyph unicode="&#xbb;" glyph-name="uni00BB" horiz-adv-x="1856" d="M127 220L511 840H976V820L572 220H127ZM127 1448H572L976 848V828H511L127 1448ZM847 220L1231 840H1696V820L1292 220H847ZM847 1448H1292L1696 848V828H1231L847 1448Z" />
<glyph unicode="&#xbc;" glyph-name="uni00BC" horiz-adv-x="2472" d="M323 0L1731 2048H2004L596 0H323ZM347 1216V2025H340L80 1865V2126L368 2304H644V1216H347ZM1366 167V408L1867 1088H2072V767H1955L1671 422V412H2410V167H1366ZM1962 0V238L1966 349V1088H2249V0H1962Z"
/>
<glyph unicode="&#xbd;" glyph-name="uni00BD" horiz-adv-x="2570" d="M323 0L1731 2048H2004L596 0H323ZM347 1216V2025H340L80 1865V2126L368 2304H644V1216H347ZM1607 0V216L2055 554Q2117 601 2163 644T2210 746Q2210 804 2160 833T2036 863Q1961 863 1915
830T1869 728H1583Q1583 905 1713 1004T2043 1104Q2249 1104 2371 1001T2493 750Q2493 668 2459 599T2354 468T2176 343L2039 259V248H2495V0H1607Z" />
<glyph unicode="&#xbe;" glyph-name="uni00BE" horiz-adv-x="2733" d="M584 0L1992 2048H2265L857 0H584ZM1627 167V408L2128 1088H2333V767H2216L1932 422V412H2671V167H1627ZM2223 0V238L2227 349V1088H2510V0H2223ZM564 1200Q417 1200 309 1244T139 1363T75
1532H383Q388 1492 436 1470T554 1447Q634 1447 689 1474T744 1549Q744 1594 694 1624T546 1654H400V1882H546Q621 1882 667 1910T714 1984Q714 2028 674 2056T561 2084Q496 2084 445 2060T390 1996H99Q103 2092 166 2165T335 2279T570 2320Q702 2320 800 2277T952
2162T1007 2003Q1007 1915 946 1856T786 1784V1773Q919 1762 988 1697T1057 1530Q1057 1433 992 1359T816 1242T564 1200Z" />
<glyph unicode="&#xbf;" glyph-name="uni00BF" horiz-adv-x="1636" d="M875 1538Q983 1538 1060 1463T1135 1278Q1137 1172 1060 1097T875 1022Q772 1022 695 1097T615 1278Q616 1351 652 1410T748 1503T875 1538ZM1096 882V842Q1096 672 1068 571T985 408T850
296Q788 255 738 214T659 125T630 16Q630 -44 658 -88T734 -157T842 -182Q901 -182 952 -156T1036 -79T1070 41H1530Q1527 -169 1433 -303T1183 -502T838 -566Q633 -566 472 -502T219 -314T127 -7Q127 113 167 203T278 363T446 489Q522 535 571 582T645 691T670
842V882H1096Z" />
<glyph unicode="&#xc0;" glyph-name="uni00C0" horiz-adv-x="2173" d="M598 0H66L757 2048H1416L2107 0H1575L1094 1532H1078L598 0ZM527 806H1639V430H527V806ZM923 2243L620 2694H1053L1256 2243H923Z" />
<glyph unicode="&#xc1;" glyph-name="uni00C1" horiz-adv-x="2173" d="M598 0H66L757 2048H1416L2107 0H1575L1094 1532H1078L598 0ZM527 806H1639V430H527V806ZM918 2243L1120 2694H1553L1251 2243H918Z" />
<glyph unicode="&#xc2;" glyph-name="uni00C2" horiz-adv-x="2173" d="M598 0H66L757 2048H1416L2107 0H1575L1094 1532H1078L598 0ZM527 806H1639V430H527V806ZM888 2230H478V2243L911 2691H1262L1694 2243V2230H1285L1086 2462L888 2230Z" />
<glyph unicode="&#xc3;" glyph-name="uni00C3" horiz-adv-x="2173" d="M598 0H66L757 2048H1416L2107 0H1575L1094 1532H1078L598 0ZM527 806H1639V430H527V806ZM807 2248L552 2250Q552 2453 649 2557T885 2662Q959 2662 1011 2639T1104 2584T1180 2529T1256 2505Q1313
2506 1340 2547T1369 2660L1620 2657Q1617 2456 1521 2351T1287 2244Q1211 2243 1158 2267T1067 2322T993 2376T916 2400Q867 2400 837 2361T807 2248Z" />
<glyph unicode="&#xc4;" glyph-name="uni00C4" horiz-adv-x="2173" d="M598 0H66L757 2048H1416L2107 0H1575L1094 1532H1078L598 0ZM527 806H1639V430H527V806ZM776 2243Q682 2243 616 2307T549 2461Q549 2551 615 2614T776 2678Q869 2678 934 2615T1000 2461Q1000
2371 935 2307T776 2243ZM1400 2243Q1306 2243 1240 2307T1173 2461Q1173 2551 1239 2614T1400 2678Q1493 2678 1558 2615T1624 2461Q1624 2371 1559 2307T1400 2243Z" />
<glyph unicode="&#xc5;" glyph-name="uni00C5" horiz-adv-x="2173" d="M598 0H66L757 2048H1416L2107 0H1575L1094 1532H1078L598 0ZM527 806H1639V430H527V806ZM1086 2149Q998 2149 925 2190T808 2302T764 2458Q764 2543 807 2613T924 2724T1086 2766Q1176 2766
1249 2725T1365 2613T1409 2458Q1409 2372 1366 2302T1249 2191T1086 2149ZM1086 2330Q1142 2330 1182 2367T1222 2458Q1222 2511 1182 2548T1086 2586Q1031 2585 991 2548T951 2458Q951 2405 990 2367T1086 2330Z" />
<glyph unicode="&#xc6;" glyph-name="uni00C6" horiz-adv-x="2938" d="M66 0L904 2048H2783V1646H1850V1226H2710V823H1850V402H2783V0H1355V1553H1214L610 0H66ZM546 430V806H1642V430H546Z" />
<glyph unicode="&#xc7;" glyph-name="uni00C7" horiz-adv-x="2141" d="M2014 1306H1514Q1504 1383 1473 1445T1391 1551T1271 1618T1117 1642Q968 1642 861 1569T696 1358T638 1024Q638 820 696 683T861 476T1114 406Q1196 406 1263 427T1382 488T1467 587T1514
720L2014 717Q2001 581 1936 449T1756 209T1479 36T1104 -28Q826 -28 607 94T260 452T133 1024Q133 1362 262 1597T611 1954T1104 2076Q1290 2076 1448 2025T1726 1875T1921 1633T2014 1306ZM997 11H1193L1177 -79Q1287 -95 1353 -158T1420 -324Q1421 -480 1272
-570T856 -661L854 -460Q991 -460 1066 -429T1144 -335Q1147 -277 1099 -243T950 -195L997 11Z" />
<glyph unicode="&#xc8;" glyph-name="uni00C8" horiz-adv-x="1738" d="M155 0V2048H1583V1646H650V1226H1510V823H650V402H1583V0H155ZM710 2243L407 2694H840L1043 2243H710Z" />
<glyph unicode="&#xc9;" glyph-name="uni00C9" horiz-adv-x="1738" d="M155 0V2048H1583V1646H650V1226H1510V823H650V402H1583V0H155ZM705 2243L907 2694H1340L1038 2243H705Z" />
<glyph unicode="&#xca;" glyph-name="uni00CA" horiz-adv-x="1738" d="M155 0V2048H1583V1646H650V1226H1510V823H650V402H1583V0H155ZM675 2230H265V2243L698 2691H1049L1481 2243V2230H1072L873 2462L675 2230Z" />
<glyph unicode="&#xcb;" glyph-name="uni00CB" horiz-adv-x="1738" d="M155 0V2048H1583V1646H650V1226H1510V823H650V402H1583V0H155ZM563 2243Q469 2243 403 2307T336 2461Q336 2551 402 2614T563 2678Q656 2678 721 2615T787 2461Q787 2371 722 2307T563 2243ZM1187
2243Q1093 2243 1027 2307T960 2461Q960 2551 1026 2614T1187 2678Q1280 2678 1345 2615T1411 2461Q1411 2371 1346 2307T1187 2243Z" />
<glyph unicode="&#xcc;" glyph-name="uni00CC" horiz-adv-x="805" d="M650 2048V0H155V2048H650ZM240 2243L-63 2694H370L573 2243H240Z" />
<glyph unicode="&#xcd;" glyph-name="uni00CD" horiz-adv-x="805" d="M650 2048V0H155V2048H650ZM235 2243L437 2694H870L568 2243H235Z" />
<glyph unicode="&#xce;" glyph-name="uni00CE" horiz-adv-x="805" d="M650 2048V0H155V2048H650ZM206 2230H-204V2243L229 2691H580L1012 2243V2230H603L404 2462L206 2230Z" />
<glyph unicode="&#xcf;" glyph-name="uni00CF" horiz-adv-x="805" d="M650 2048V0H155V2048H650ZM94 2243Q0 2243 -66 2307T-133 2461Q-133 2551 -67 2614T94 2678Q187 2678 252 2615T318 2461Q318 2371 253 2307T94 2243ZM718 2243Q624 2243 558 2307T491 2461Q491
2551 557 2614T718 2678Q811 2678 876 2615T942 2461Q942 2371 877 2307T718 2243Z" />
<glyph unicode="&#xd0;" glyph-name="uni00D0" horiz-adv-x="2056" d="M912 0H155V2048H911Q1224 2048 1450 1926T1800 1574T1923 1025Q1923 705 1801 475T1451 123T912 0ZM650 422H893Q1065 422 1184 480T1365 671T1427 1025Q1427 1246 1365 1377T1183 1567T886
1626H650V422ZM-119 952V1225H918V952H-119Z" />
<glyph unicode="&#xd1;" glyph-name="uni00D1" horiz-adv-x="2053" d="M1898 2048V0H1478L663 1182H650V0H155V2048H581L1387 868H1404V2048H1898ZM749 2238L494 2240Q494 2443 591 2547T827 2652Q901 2652 953 2629T1046 2574T1122 2519T1198 2495Q1255 2496
1282 2537T1311 2650L1562 2647Q1559 2446 1463 2341T1229 2234Q1153 2233 1100 2257T1009 2312T935 2366T858 2390Q809 2390 779 2351T749 2238Z" />
<glyph unicode="&#xd2;" glyph-name="uni00D2" horiz-adv-x="2221" d="M2088 1024Q2088 686 1958 451T1607 94T1110 -28Q834 -28 613 95T263 452T133 1024Q133 1362 262 1597T613 1954T1110 2076Q1385 2076 1606 1954T1958 1597T2088 1024ZM1582 1024Q1582 1224
1526 1362T1364 1571T1110 1642Q963 1642 857 1571T695 1362T638 1024Q638 824 694 686T857 477T1110 406Q1258 406 1363 477T1525 686T1582 1024ZM947 2243L644 2694H1077L1280 2243H947Z" />
<glyph unicode="&#xd3;" glyph-name="uni00D3" horiz-adv-x="2221" d="M2088 1024Q2088 686 1958 451T1607 94T1110 -28Q834 -28 613 95T263 452T133 1024Q133 1362 262 1597T613 1954T1110 2076Q1385 2076 1606 1954T1958 1597T2088 1024ZM1582 1024Q1582 1224
1526 1362T1364 1571T1110 1642Q963 1642 857 1571T695 1362T638 1024Q638 824 694 686T857 477T1110 406Q1258 406 1363 477T1525 686T1582 1024ZM942 2243L1144 2694H1577L1275 2243H942Z" />
<glyph unicode="&#xd4;" glyph-name="uni00D4" horiz-adv-x="2221" d="M2088 1024Q2088 686 1958 451T1607 94T1110 -28Q834 -28 613 95T263 452T133 1024Q133 1362 262 1597T613 1954T1110 2076Q1385 2076 1606 1954T1958 1597T2088 1024ZM1582 1024Q1582 1224
1526 1362T1364 1571T1110 1642Q963 1642 857 1571T695 1362T638 1024Q638 824 694 686T857 477T1110 406Q1258 406 1363 477T1525 686T1582 1024ZM912 2230H502V2243L935 2691H1286L1718 2243V2230H1309L1110 2462L912 2230Z" />
<glyph unicode="&#xd5;" glyph-name="uni00D5" horiz-adv-x="2221" d="M2088 1024Q2088 686 1958 451T1607 94T1110 -28Q834 -28 613 95T263 452T133 1024Q133 1362 262 1597T613 1954T1110 2076Q1385 2076 1606 1954T1958 1597T2088 1024ZM1582 1024Q1582 1224
1526 1362T1364 1571T1110 1642Q963 1642 857 1571T695 1362T638 1024Q638 824 694 686T857 477T1110 406Q1258 406 1363 477T1525 686T1582 1024ZM831 2248L576 2250Q576 2453 673 2557T909 2662Q983 2662 1035 2639T1128 2584T1204 2529T1280 2505Q1337 2506
1364 2547T1393 2660L1644 2657Q1641 2456 1545 2351T1311 2244Q1235 2243 1182 2267T1091 2322T1017 2376T940 2400Q891 2400 861 2361T831 2248Z" />
<glyph unicode="&#xd6;" glyph-name="uni00D6" horiz-adv-x="2221" d="M2088 1024Q2088 686 1958 451T1607 94T1110 -28Q834 -28 613 95T263 452T133 1024Q133 1362 262 1597T613 1954T1110 2076Q1385 2076 1606 1954T1958 1597T2088 1024ZM1582 1024Q1582 1224
1526 1362T1364 1571T1110 1642Q963 1642 857 1571T695 1362T638 1024Q638 824 694 686T857 477T1110 406Q1258 406 1363 477T1525 686T1582 1024ZM800 2243Q706 2243 640 2307T573 2461Q573 2551 639 2614T800 2678Q893 2678 958 2615T1024 2461Q1024 2371 959
2307T800 2243ZM1424 2243Q1330 2243 1264 2307T1197 2461Q1197 2551 1263 2614T1424 2678Q1517 2678 1582 2615T1648 2461Q1648 2371 1583 2307T1424 2243Z" />
<glyph unicode="&#xd7;" glyph-name="uni00D7" horiz-adv-x="1933" d="M1426 67L208 1282L507 1584L1725 366L1426 67ZM507 67L208 366L1426 1584L1725 1282L507 67Z" />
<glyph unicode="&#xd8;" glyph-name="uni00D8" horiz-adv-x="2221" d="M474 -103L264 39L1746 2147L1955 2005L474 -103ZM2088 1024Q2088 686 1958 451T1607 94T1110 -28Q834 -28 613 95T263 452T133 1024Q133 1362 262 1597T613 1954T1110 2076Q1385 2076 1606
1954T1958 1597T2088 1024ZM1582 1024Q1582 1224 1526 1362T1364 1571T1110 1642Q963 1642 857 1571T695 1362T638 1024Q638 824 694 686T857 477T1110 406Q1258 406 1363 477T1525 686T1582 1024Z" />
<glyph unicode="&#xd9;" glyph-name="uni00D9" horiz-adv-x="2043" d="M1394 2048H1888V727Q1888 498 1779 329T1475 67T1022 -26Q761 -26 566 66T263 328T155 727V2048H650V770Q650 664 696 581T827 451T1022 404Q1133 404 1216 451T1347 581T1394 770V2048ZM858
2243L555 2694H988L1191 2243H858Z" />
<glyph unicode="&#xda;" glyph-name="uni00DA" horiz-adv-x="2043" d="M1394 2048H1888V727Q1888 498 1779 329T1475 67T1022 -26Q761 -26 566 66T263 328T155 727V2048H650V770Q650 664 696 581T827 451T1022 404Q1133 404 1216 451T1347 581T1394 770V2048ZM853
2243L1055 2694H1488L1186 2243H853Z" />
<glyph unicode="&#xdb;" glyph-name="uni00DB" horiz-adv-x="2043" d="M1394 2048H1888V727Q1888 498 1779 329T1475 67T1022 -26Q761 -26 566 66T263 328T155 727V2048H650V770Q650 664 696 581T827 451T1022 404Q1133 404 1216 451T1347 581T1394 770V2048ZM823
2230H413V2243L846 2691H1197L1629 2243V2230H1220L1021 2462L823 2230Z" />
<glyph unicode="&#xdc;" glyph-name="uni00DC" horiz-adv-x="2043" d="M1394 2048H1888V727Q1888 498 1779 329T1475 67T1022 -26Q761 -26 566 66T263 328T155 727V2048H650V770Q650 664 696 581T827 451T1022 404Q1133 404 1216 451T1347 581T1394 770V2048ZM711
2243Q617 2243 551 2307T484 2461Q484 2551 550 2614T711 2678Q804 2678 869 2615T935 2461Q935 2371 870 2307T711 2243ZM1335 2243Q1241 2243 1175 2307T1108 2461Q1108 2551 1174 2614T1335 2678Q1428 2678 1493 2615T1559 2461Q1559 2371 1494 2307T1335 2243Z"
/>
<glyph unicode="&#xdd;" glyph-name="uni00DD" horiz-adv-x="2096" d="M53 2048H606L1039 1191H1057L1490 2048H2043L1294 684V0H802V684L53 2048ZM879 2243L1081 2694H1514L1212 2243H879Z" />
<glyph unicode="&#xde;" glyph-name="uni00DE" horiz-adv-x="1926" d="M155 2048H650V0H155V2048ZM383 1688H918Q1174 1688 1351 1606T1620 1379T1712 1049Q1712 863 1621 720T1352 495T918 413H383V783H918Q1034 783 1105 821T1207 918T1239 1045Q1239 1113 1208
1175T1105 1275T918 1314H383V1688Z" />
<glyph unicode="&#xdf;" glyph-name="uni00DF" horiz-adv-x="1921" d="M155 0V1502Q155 1681 246 1809T504 2007T898 2076Q1107 2076 1283 2014T1566 1827T1673 1513Q1673 1359 1598 1249T1387 1103V1080Q1589 1068 1704 924T1818 564Q1818 379 1731 254T1491
64T1139 0H854V390H1047Q1131 390 1193 418T1290 497T1323 618Q1322 726 1239 788T1014 851H862V1219H962Q1025 1219 1071 1249T1144 1329T1171 1442Q1173 1544 1105 1609T914 1674Q791 1674 718 1605T644 1418V0H155Z" />
<glyph unicode="&#xe0;" glyph-name="uni00E0" horiz-adv-x="1649" d="M588 -26Q441 -26 328 23T149 173T83 426Q83 554 128 642T252 785T434 868T654 907Q785 919 865 932T981 971T1018 1044V1049Q1018 1126 965 1168T822 1210Q725 1210 666 1168T591 1052L140
1068Q160 1208 243 1318T473 1492T826 1556Q973 1556 1097 1522T1313 1422T1455 1261T1506 1044V0H1046V214H1034Q993 136 930 82T781 1T588 -26ZM739 294Q818 294 881 326T983 414T1021 546V692Q1000 681 971 672T906 655T834 641T763 630Q694 619 646 596T572
537T546 450Q546 374 600 334T739 294ZM935 1731L632 2182H1065L1268 1731H935Z" />
<glyph unicode="&#xe1;" glyph-name="uni00E1" horiz-adv-x="1649" d="M588 -26Q441 -26 328 23T149 173T83 426Q83 554 128 642T252 785T434 868T654 907Q785 919 865 932T981 971T1018 1044V1049Q1018 1126 965 1168T822 1210Q725 1210 666 1168T591 1052L140
1068Q160 1208 243 1318T473 1492T826 1556Q973 1556 1097 1522T1313 1422T1455 1261T1506 1044V0H1046V214H1034Q993 136 930 82T781 1T588 -26ZM739 294Q818 294 881 326T983 414T1021 546V692Q1000 681 971 672T906 655T834 641T763 630Q694 619 646 596T572
537T546 450Q546 374 600 334T739 294ZM674 1731L876 2182H1309L1007 1731H674Z" />
<glyph unicode="&#xe2;" glyph-name="uni00E2" horiz-adv-x="1649" d="M588 -26Q441 -26 328 23T149 173T83 426Q83 554 128 642T252 785T434 868T654 907Q785 919 865 932T981 971T1018 1044V1049Q1018 1126 965 1168T822 1210Q725 1210 666 1168T591 1052L140
1068Q160 1208 243 1318T473 1492T826 1556Q973 1556 1097 1522T1313 1422T1455 1261T1506 1044V0H1046V214H1034Q993 136 930 82T781 1T588 -26ZM739 294Q818 294 881 326T983 414T1021 546V692Q1000 681 971 672T906 655T834 641T763 630Q694 619 646 596T572
537T546 450Q546 374 600 334T739 294ZM644 1718H234V1731L667 2179H1018L1450 1731V1718H1041L842 1950L644 1718Z" />
<glyph unicode="&#xe3;" glyph-name="uni00E3" horiz-adv-x="1649" d="M588 -26Q441 -26 328 23T149 173T83 426Q83 554 128 642T252 785T434 868T654 907Q785 919 865 932T981 971T1018 1044V1049Q1018 1126 965 1168T822 1210Q725 1210 666 1168T591 1052L140
1068Q160 1208 243 1318T473 1492T826 1556Q973 1556 1097 1522T1313 1422T1455 1261T1506 1044V0H1046V214H1034Q993 136 930 82T781 1T588 -26ZM739 294Q818 294 881 326T983 414T1021 546V692Q1000 681 971 672T906 655T834 641T763 630Q694 619 646 596T572
537T546 450Q546 374 600 334T739 294ZM563 1726L308 1728Q308 1931 405 2035T641 2140Q715 2140 767 2117T860 2062T936 2007T1012 1983Q1069 1984 1096 2025T1125 2138L1376 2135Q1373 1934 1277 1829T1043 1722Q967 1721 914 1745T823 1800T749 1854T672 1878Q623
1878 593 1839T563 1726Z" />
<glyph unicode="&#xe4;" glyph-name="uni00E4" horiz-adv-x="1649" d="M588 -26Q441 -26 328 23T149 173T83 426Q83 554 128 642T252 785T434 868T654 907Q785 919 865 932T981 971T1018 1044V1049Q1018 1126 965 1168T822 1210Q725 1210 666 1168T591 1052L140
1068Q160 1208 243 1318T473 1492T826 1556Q973 1556 1097 1522T1313 1422T1455 1261T1506 1044V0H1046V214H1034Q993 136 930 82T781 1T588 -26ZM739 294Q818 294 881 326T983 414T1021 546V692Q1000 681 971 672T906 655T834 641T763 630Q694 619 646 596T572
537T546 450Q546 374 600 334T739 294ZM532 1731Q438 1731 372 1795T305 1949Q305 2039 371 2102T532 2166Q625 2166 690 2103T756 1949Q756 1859 691 1795T532 1731ZM1156 1731Q1062 1731 996 1795T929 1949Q929 2039 995 2102T1156 2166Q1249 2166 1314 2103T1380
1949Q1380 1859 1315 1795T1156 1731Z" />
<glyph unicode="&#xe5;" glyph-name="uni00E5" horiz-adv-x="1649" d="M588 -26Q441 -26 328 23T149 173T83 426Q83 554 128 642T252 785T434 868T654 907Q785 919 865 932T981 971T1018 1044V1049Q1018 1126 965 1168T822 1210Q725 1210 666 1168T591 1052L140
1068Q160 1208 243 1318T473 1492T826 1556Q973 1556 1097 1522T1313 1422T1455 1261T1506 1044V0H1046V214H1034Q993 136 930 82T781 1T588 -26ZM739 294Q818 294 881 326T983 414T1021 546V692Q1000 681 971 672T906 655T834 641T763 630Q694 619 646 596T572
537T546 450Q546 374 600 334T739 294ZM842 1698Q750 1698 674 1742T553 1859T507 2022Q507 2112 552 2186T674 2304T842 2349Q935 2349 1011 2305T1132 2186T1177 2022Q1177 1933 1132 1860T1011 1742T842 1698ZM842 1886Q903 1886 944 1926T986 2022Q986 2078
945 2120T842 2161Q782 2160 740 2119T698 2022Q698 1967 740 1926T842 1886Z" />
<glyph unicode="&#xe6;" glyph-name="uni00E6" horiz-adv-x="2562" d="M1773 -29Q1572 -29 1415 53T1192 298L1159 1248Q1261 1412 1401 1484T1723 1556Q1886 1556 2022 1505T2258 1354T2411 1108T2466 772V650H1174V934H2012Q2010 1012 1974 1073T1876 1168T1733
1203Q1650 1203 1585 1167T1483 1067T1443 926V637Q1443 543 1480 473T1585 363T1747 324Q1811 324 1864 342T1956 395T2013 481L2462 468Q2434 317 2339 206T2099 33T1773 -29ZM739 294Q818 294 881 326T983 414T1021 546V692Q1000 681 971 672T906 655T834 641T763
630Q694 619 646 596T572 537T546 450Q546 374 600 334T739 294ZM620 -26Q457 -26 336 23T149 174T83 426Q83 554 128 641T252 784T435 868T654 907Q786 919 865 933T981 972T1018 1044V1049Q1018 1127 965 1168T822 1210Q726 1210 666 1168T591 1052L140 1068Q160
1208 243 1318T474 1492T836 1556Q910 1556 977 1543T1102 1502T1205 1430T1277 1326L1239 242H1210Q1165 156 1076 96T868 5T620 -26Z" />
<glyph unicode="&#xe7;" glyph-name="uni00E7" horiz-adv-x="1681" d="M872 -29Q629 -29 456 71T189 349T96 763Q96 999 189 1177T456 1456T871 1556Q1084 1556 1242 1479T1490 1262T1585 932H1128Q1114 1050 1049 1117T878 1184Q793 1184 729 1137T630 997T594
768Q594 632 629 539T729 398T878 350Q946 350 998 379T1085 464T1128 602H1585Q1578 412 1491 270T1246 50T872 -29ZM776 8H972L956 -82Q1066 -98 1132 -161T1199 -327Q1200 -483 1051 -573T635 -664L633 -463Q770 -463 845 -432T923 -338Q926 -280 878 -246T729
-198L776 8Z" />
<glyph unicode="&#xe8;" glyph-name="uni00E8" horiz-adv-x="1698" d="M873 -29Q632 -29 458 66T190 339T96 762Q96 1000 190 1178T455 1456T858 1556Q1022 1556 1158 1505T1393 1354T1547 1108T1602 772V650H267V934H1147Q1146 1012 1110 1073T1012 1168T868
1203Q786 1203 721 1167T618 1068T578 926V637Q578 543 615 473T720 363T882 324Q947 324 1000 342T1091 395T1148 481L1597 468Q1569 317 1475 206T1227 33T873 -29ZM686 1731L383 2182H816L1019 1731H686Z" />
<glyph unicode="&#xe9;" glyph-name="uni00E9" horiz-adv-x="1698" d="M873 -29Q632 -29 458 66T190 339T96 762Q96 1000 190 1178T455 1456T858 1556Q1022 1556 1158 1505T1393 1354T1547 1108T1602 772V650H267V934H1147Q1146 1012 1110 1073T1012 1168T868
1203Q786 1203 721 1167T618 1068T578 926V637Q578 543 615 473T720 363T882 324Q947 324 1000 342T1091 395T1148 481L1597 468Q1569 317 1475 206T1227 33T873 -29ZM681 1731L883 2182H1316L1014 1731H681Z" />
<glyph unicode="&#xea;" glyph-name="uni00EA" horiz-adv-x="1698" d="M873 -29Q632 -29 458 66T190 339T96 762Q96 1000 190 1178T455 1456T858 1556Q1022 1556 1158 1505T1393 1354T1547 1108T1602 772V650H267V934H1147Q1146 1012 1110 1073T1012 1168T868
1203Q786 1203 721 1167T618 1068T578 926V637Q578 543 615 473T720 363T882 324Q947 324 1000 342T1091 395T1148 481L1597 468Q1569 317 1475 206T1227 33T873 -29ZM651 1718H241V1731L674 2179H1025L1457 1731V1718H1048L849 1950L651 1718Z" />
<glyph unicode="&#xeb;" glyph-name="uni00EB" horiz-adv-x="1698" d="M873 -29Q632 -29 458 66T190 339T96 762Q96 1000 190 1178T455 1456T858 1556Q1022 1556 1158 1505T1393 1354T1547 1108T1602 772V650H267V934H1147Q1146 1012 1110 1073T1012 1168T868
1203Q786 1203 721 1167T618 1068T578 926V637Q578 543 615 473T720 363T882 324Q947 324 1000 342T1091 395T1148 481L1597 468Q1569 317 1475 206T1227 33T873 -29ZM539 1731Q445 1731 379 1795T312 1949Q312 2039 378 2102T539 2166Q632 2166 697 2103T763 1949Q763
1859 698 1795T539 1731ZM1163 1731Q1069 1731 1003 1795T936 1949Q936 2039 1002 2102T1163 2166Q1256 2166 1321 2103T1387 1949Q1387 1859 1322 1795T1163 1731Z" />
<glyph unicode="&#xec;" glyph-name="uni00EC" horiz-adv-x="799" d="M155 0V1536H644V0H155ZM236 1731L-67 2182H366L569 1731H236Z" />
<glyph unicode="&#xed;" glyph-name="uni00ED" horiz-adv-x="799" d="M155 0V1536H644V0H155ZM231 1731L433 2182H866L564 1731H231Z" />
<glyph unicode="&#xee;" glyph-name="uni00EE" horiz-adv-x="799" d="M155 0V1536H644V0H155ZM202 1718H-208V1731L225 2179H576L1008 1731V1718H599L400 1950L202 1718Z" />
<glyph unicode="&#xef;" glyph-name="uni00EF" horiz-adv-x="799" d="M155 0V1536H644V0H155ZM90 1731Q-4 1731 -70 1795T-137 1949Q-137 2039 -71 2102T90 2166Q183 2166 248 2103T314 1949Q314 1859 249 1795T90 1731ZM714 1731Q620 1731 554 1795T487 1949Q487
2039 553 2102T714 2166Q807 2166 872 2103T938 1949Q938 1859 873 1795T714 1731Z" />
<glyph unicode="&#xf0;" glyph-name="uni00F0" horiz-adv-x="1603" d="M1261 1855L390 1405L258 1642L1129 2093L1261 1855ZM800 -32Q588 -32 431 63T188 324T102 704Q102 909 172 1058T352 1297T577 1418Q635 1430 699 1432T824 1417T928 1356H948Q891 1443 832
1509T702 1632T538 1747T318 1877L534 2176Q710 2089 881 1954T1192 1638T1417 1236T1501 752Q1501 504 1414 329T1168 61T800 -32ZM822 340Q901 340 959 378T1049 498T1081 710Q1081 847 1048 924T956 1033T822 1065Q747 1065 689 1032T599 920T566 707Q566 574
598 494T687 377T822 340Z" />
<glyph unicode="&#xf1;" glyph-name="uni00F1" horiz-adv-x="1786" d="M644 876V0H155V1536H620V1254H637Q688 1395 811 1475T1104 1556Q1266 1556 1385 1484T1571 1282T1637 979V0H1148V883Q1149 1011 1084 1083T902 1155Q825 1155 767 1122T677 1026T644 876ZM615
1726L360 1728Q360 1931 457 2035T693 2140Q767 2140 819 2117T912 2062T988 2007T1064 1983Q1121 1984 1148 2025T1177 2138L1428 2135Q1425 1934 1329 1829T1095 1722Q1019 1721 966 1745T875 1800T801 1854T724 1878Q675 1878 645 1839T615 1726Z" />
<glyph unicode="&#xf2;" glyph-name="uni00F2" horiz-adv-x="1744" d="M872 -29Q630 -29 457 70T190 348T96 763Q96 1000 189 1178T456 1456T872 1556Q1114 1556 1287 1457T1554 1179T1648 763Q1648 527 1555 349T1288 71T872 -29ZM875 340Q963 340 1024 394T1117
544T1150 766Q1150 894 1118 990T1024 1140T875 1194Q784 1194 722 1140T627 990T594 766Q594 640 626 544T721 394T875 340ZM708 1731L405 2182H838L1041 1731H708Z" />
<glyph unicode="&#xf3;" glyph-name="uni00F3" horiz-adv-x="1744" d="M872 -29Q630 -29 457 70T190 348T96 763Q96 1000 189 1178T456 1456T872 1556Q1114 1556 1287 1457T1554 1179T1648 763Q1648 527 1555 349T1288 71T872 -29ZM875 340Q963 340 1024 394T1117
544T1150 766Q1150 894 1118 990T1024 1140T875 1194Q784 1194 722 1140T627 990T594 766Q594 640 626 544T721 394T875 340ZM703 1731L905 2182H1338L1036 1731H703Z" />
<glyph unicode="&#xf4;" glyph-name="uni00F4" horiz-adv-x="1744" d="M872 -29Q630 -29 457 70T190 348T96 763Q96 1000 189 1178T456 1456T872 1556Q1114 1556 1287 1457T1554 1179T1648 763Q1648 527 1555 349T1288 71T872 -29ZM875 340Q963 340 1024 394T1117
544T1150 766Q1150 894 1118 990T1024 1140T875 1194Q784 1194 722 1140T627 990T594 766Q594 640 626 544T721 394T875 340ZM674 1718H264V1731L697 2179H1048L1480 1731V1718H1071L872 1950L674 1718Z" />
<glyph unicode="&#xf5;" glyph-name="uni00F5" horiz-adv-x="1744" d="M872 -29Q630 -29 457 70T190 348T96 763Q96 1000 189 1178T456 1456T872 1556Q1114 1556 1287 1457T1554 1179T1648 763Q1648 527 1555 349T1288 71T872 -29ZM875 340Q963 340 1024 394T1117
544T1150 766Q1150 894 1118 990T1024 1140T875 1194Q784 1194 722 1140T627 990T594 766Q594 640 626 544T721 394T875 340ZM593 1726L338 1728Q338 1931 435 2035T671 2140Q745 2140 797 2117T890 2062T966 2007T1042 1983Q1099 1984 1126 2025T1155 2138L1406
2135Q1403 1934 1307 1829T1073 1722Q997 1721 944 1745T853 1800T779 1854T702 1878Q653 1878 623 1839T593 1726Z" />
<glyph unicode="&#xf6;" glyph-name="uni00F6" horiz-adv-x="1744" d="M872 -29Q630 -29 457 70T190 348T96 763Q96 1000 189 1178T456 1456T872 1556Q1114 1556 1287 1457T1554 1179T1648 763Q1648 527 1555 349T1288 71T872 -29ZM875 340Q963 340 1024 394T1117
544T1150 766Q1150 894 1118 990T1024 1140T875 1194Q784 1194 722 1140T627 990T594 766Q594 640 626 544T721 394T875 340ZM562 1731Q468 1731 402 1795T335 1949Q335 2039 401 2102T562 2166Q655 2166 720 2103T786 1949Q786 1859 721 1795T562 1731ZM1186 1731Q1092
1731 1026 1795T959 1949Q959 2039 1025 2102T1186 2166Q1279 2166 1344 2103T1410 1949Q1410 1859 1345 1795T1186 1731Z" />
<glyph unicode="&#xf7;" glyph-name="uni00F7" horiz-adv-x="1933" d="M1686 1014V637H246V1014H1686ZM966 -5Q857 -5 780 72T703 258Q703 366 780 442T966 518Q1074 518 1150 442T1226 258Q1226 149 1150 72T966 -5ZM966 1134Q894 1134 834 1169T739 1264T703
1397Q703 1505 780 1580T966 1656Q1074 1656 1150 1581T1226 1397Q1226 1288 1150 1211T966 1134Z" />
<glyph unicode="&#xf8;" glyph-name="uni00F8" horiz-adv-x="1744" d="M418 -103L209 39L1322 1627L1535 1485L418 -103ZM872 -32Q630 -32 457 67T190 345T96 760Q96 997 189 1175T456 1453T872 1553Q1114 1553 1287 1454T1554 1176T1648 760Q1648 524 1555 346T1288
68T872 -32ZM875 337Q963 337 1024 390T1117 540T1150 763Q1150 891 1118 986T1024 1136T875 1190Q784 1190 722 1136T627 987T594 763Q594 636 626 540T721 391T875 337Z" />
<glyph unicode="&#xf9;" glyph-name="uni00F9" horiz-adv-x="1790" d="M1146 663V1536H1634V0H1168V286H1152Q1101 145 979 63T683 -20Q526 -20 407 52T222 253T155 557V1536H644V653Q645 528 710 456T887 384Q960 384 1018 416T1111 511T1146 663ZM733 1731L430
2182H863L1066 1731H733Z" />
<glyph unicode="&#xfa;" glyph-name="uni00FA" horiz-adv-x="1790" d="M1146 663V1536H1634V0H1168V286H1152Q1101 145 979 63T683 -20Q526 -20 407 52T222 253T155 557V1536H644V653Q645 528 710 456T887 384Q960 384 1018 416T1111 511T1146 663ZM728 1731L930
2182H1363L1061 1731H728Z" />
<glyph unicode="&#xfb;" glyph-name="uni00FB" horiz-adv-x="1790" d="M1146 663V1536H1634V0H1168V286H1152Q1101 145 979 63T683 -20Q526 -20 407 52T222 253T155 557V1536H644V653Q645 528 710 456T887 384Q960 384 1018 416T1111 511T1146 663ZM698 1718H288V1731L721
2179H1072L1504 1731V1718H1095L896 1950L698 1718Z" />
<glyph unicode="&#xfc;" glyph-name="uni00FC" horiz-adv-x="1790" d="M1146 663V1536H1634V0H1168V286H1152Q1101 145 979 63T683 -20Q526 -20 407 52T222 253T155 557V1536H644V653Q645 528 710 456T887 384Q960 384 1018 416T1111 511T1146 663ZM586 1731Q492
1731 426 1795T359 1949Q359 2039 425 2102T586 2166Q679 2166 744 2103T810 1949Q810 1859 745 1795T586 1731ZM1210 1731Q1116 1731 1050 1795T983 1949Q983 2039 1049 2102T1210 2166Q1303 2166 1368 2103T1434 1949Q1434 1859 1369 1795T1210 1731Z" />
<glyph unicode="&#xfd;" glyph-name="uni00FD" horiz-adv-x="1677" d="M454 -574Q366 -574 288 -561T154 -525L262 -170Q370 -205 444 -195T559 -102L578 -56L32 1536H544L827 440H843L1130 1536L1645 1535L1066 -147Q1024 -271 948 -367T751 -519T454 -574ZM667
1731L869 2182H1302L1000 1731H667Z" />
<glyph unicode="&#xfe;" glyph-name="uni00FE" horiz-adv-x="1729" d="M155 2048H644V1284L466 739L644 307V-576H155V2048ZM449 1382H661Q688 1439 738 1478T859 1536T1015 1556Q1173 1556 1312 1472T1539 1213T1626 767Q1627 504 1543 329T1320 66T1013 -22Q933
-22 863 -5T741 50T661 146H449V1382ZM1166 768Q1167 898 1134 989T1034 1127T866 1174Q759 1174 699 1119T614 972T589 768Q590 660 613 567T696 416T866 359Q966 359 1033 407T1133 546T1166 768Z" />
<glyph unicode="&#xff;" glyph-name="uni00FF" horiz-adv-x="1677" d="M454 -574Q366 -574 288 -561T154 -525L262 -170Q370 -205 444 -195T559 -102L578 -56L32 1536H544L827 440H843L1130 1536L1645 1535L1066 -147Q1024 -271 948 -367T751 -519T454 -574ZM525
1731Q431 1731 365 1795T298 1949Q298 2039 364 2102T525 2166Q618 2166 683 2103T749 1949Q749 1859 684 1795T525 1731ZM1149 1731Q1055 1731 989 1795T922 1949Q922 2039 988 2102T1149 2166Q1242 2166 1307 2103T1373 1949Q1373 1859 1308 1795T1149 1731Z"
/>
<glyph unicode="&#x2013;" glyph-name="uni2013" horiz-adv-x="1408" d="M1408 1017V640H0V1017H1408Z" />
<glyph unicode="&#x2014;" glyph-name="uni2014" horiz-adv-x="2816" d="M2816 1017V640H0V1017H2816Z" />
<glyph unicode="&#x2018;" glyph-name="uni2018" horiz-adv-x="723" d="M162 1408V1636Q162 1731 199 1828T297 2010T423 2150L631 2036Q577 1948 545 1853T514 1637V1408H162Z" />
<glyph unicode="&#x2019;" glyph-name="uni2019" horiz-adv-x="683" d="M562 2048V1820Q562 1725 525 1629T427 1448T300 1306L92 1420Q138 1496 174 1591T210 1819V2048H562Z" />
<glyph unicode="&#x201a;" glyph-name="uni201A" horiz-adv-x="723" d="M561 256V28Q561 -67 524 -163T426 -344T299 -486L91 -372Q137 -296 173 -201T209 27V256H561Z" />
<glyph unicode="&#x201c;" glyph-name="uni201C" horiz-adv-x="1226" d="M162 1408V1636Q162 1731 199 1828T297 2010T423 2150L631 2036Q577 1948 545 1853T514 1637V1408H162ZM664 1408V1636Q664 1731 701 1828T799 2010T925 2150L1133 2036Q1079 1948 1047
1853T1016 1637V1408H664Z" />
<glyph unicode="&#x201d;" glyph-name="uni201D" horiz-adv-x="1222" d="M562 2048V1820Q562 1725 525 1629T427 1448T300 1306L92 1420Q138 1496 174 1591T210 1819V2048H562ZM1061 2048V1820Q1061 1725 1024 1629T926 1448T799 1306L591 1420Q637 1496 673 1591T709
1819V2048H1061Z" />
<glyph unicode="&#x201e;" glyph-name="uni201E" horiz-adv-x="1222" d="M556 256V28Q556 -67 519 -163T421 -344T294 -486L86 -372Q132 -296 168 -201T204 27V256H556ZM1055 256V28Q1055 -67 1018 -163T920 -344T793 -486L585 -372Q631 -296 667 -201T703 27V256H1055Z" />
<glyph unicode="&#x2022;" glyph-name="uni2022" horiz-adv-x="1213" d="M606 376Q485 376 385 435T226 595T166 816Q166 938 225 1037T385 1196T606 1256Q728 1256 827 1197T986 1038T1046 816Q1046 695 987 595T828 436T606 376Z" />
<glyph unicode="&#x2039;" glyph-name="uni2039" horiz-adv-x="1136" d="M1005 220H560L156 820V840H621L1005 220ZM1005 1448L621 828H156V848L560 1448H1005Z" />
<glyph unicode="&#x203a;" glyph-name="uni203A" horiz-adv-x="1136" d="M127 220L511 840H976V820L572 220H127ZM127 1448H572L976 848V828H511L127 1448Z" />
</font>
</defs>
</svg>
