<?xml version="1.0" standalone="no"?>
<!DOCTYPE svg PUBLIC "-//W3C//DTD SVG 1.1//EN" "http://www.w3.org/Graphics/SVG/1.1/DTD/svg11.dtd">
<svg xmlns="http://www.w3.org/2000/svg">
<defs >
<font id="Inter" horiz-adv-x="1838" ><font-face
    font-family="Inter"
    units-per-em="2816"
    panose-1="2 11 5 2 3 0 0 0 0 4"
    ascent="2728"
    descent="-680"
    alphabetic="0" />
<glyph unicode=" " glyph-name="uni0020" horiz-adv-x="792" />
<glyph unicode="!" glyph-name="uni0021" horiz-adv-x="784" d="M528 2048L508 576H276L256 2048H528ZM392 -16Q318 -16 265 37T212 164Q212 238 265 291T392 344Q466 344 519 291T572 164Q572 115 548 74T483 9T392 -16Z" />
<glyph unicode="&quot;" glyph-name="uni0022" horiz-adv-x="1136" d="M420 2048V1344H200V2048H420ZM932 2048V1344H712V2048H932Z" />
<glyph unicode="#" glyph-name="uni0023" horiz-adv-x="1776" d="M980 0L1316 2048H1516L1180 0H980ZM48 568L80 768H1608L1576 568H48ZM260 0L596 2048H796L460 0H260ZM168 1280L200 1480H1728L1696 1280H168Z" />
<glyph unicode="$" glyph-name="uni0024" horiz-adv-x="1796" d="M816 -256V2304H980V-256H816ZM1368 1536Q1350 1688 1222 1772T908 1856Q772 1856 671 1812T513 1691T456 1516Q456 1434 495 1376T597 1279T727 1216T852 1176L1060 1120Q1140 1099 1238 1062T1427
962T1577 799T1636 556Q1636 390 1550 256T1298 43T896 -36Q676 -36 516 35T264 233T160 528H416Q426 412 494 337T668 225T896 188Q1038 188 1151 234T1330 364T1396 560Q1396 662 1339 726T1189 830T988 900L736 972Q496 1041 356 1169T216 1504Q216 1676 309
1804T561 2004T916 2076Q1114 2076 1268 2006T1512 1813T1608 1536H1368Z" />
<glyph unicode="%" glyph-name="uni0025" horiz-adv-x="2288" d="M1256 384V492Q1256 604 1302 697T1438 847T1656 904Q1786 904 1874 848T2007 698T2052 492V384Q2052 272 2007 179T1873 29T1656 -28Q1526 -28 1437 28T1302 178T1256 384ZM1460 492V384Q1460
291 1504 218T1656 144Q1761 144 1804 217T1848 384V492Q1848 585 1806 658T1656 732Q1551 732 1506 659T1460 492ZM236 1556V1664Q236 1776 282 1869T418 2019T636 2076Q766 2076 854 2020T987 1870T1032 1664V1556Q1032 1444 987 1351T853 1201T636 1144Q506
1144 417 1200T282 1350T236 1556ZM440 1664V1556Q440 1463 484 1390T636 1316Q741 1316 784 1389T828 1556V1664Q828 1757 786 1830T636 1904Q531 1904 486 1831T440 1664ZM312 0L1720 2048H1948L540 0H312Z" />
<glyph unicode="&amp;" glyph-name="uni0026" horiz-adv-x="1800" d="M796 -28Q594 -28 448 46T223 249T144 544Q144 672 198 771T349 956T572 1128L868 1348Q955 1405 1007 1470T1060 1640Q1060 1718 992 1791T812 1864Q734 1864 675 1825T582 1725T548 1600Q548
1528 587 1455T688 1305T816 1148L1756 0H1472L696 936Q588 1066 500 1172T360 1381T308 1604Q308 1742 369 1846T542 2009T804 2068Q958 2068 1069 2009T1240 1852T1300 1640Q1300 1493 1227 1385T1028 1184L620 880Q482 778 433 682T384 544Q384 448 434 365T575
231T788 180Q904 180 1014 229T1213 373T1355 599T1408 896H1636Q1636 692 1589 563T1483 361T1388 252Q1376 237 1366 222T1344 192Q1245 81 1094 27T796 -28Z" />
<glyph unicode="&apos;" glyph-name="uni0027" horiz-adv-x="624" d="M420 2048V1344H200V2048H420Z" />
<glyph unicode="(" glyph-name="uni0028" horiz-adv-x="1020" d="M300 864Q300 1242 398 1559T680 2144H888Q816 2045 754 1901T644 1584T571 1227T544 864Q544 626 590 381T714 -74T888 -416H680Q497 -149 399 168T300 864Z" />
<glyph unicode=")" glyph-name="uni0029" horiz-adv-x="1020" d="M720 864Q720 486 622 169T340 -416H132Q204 -317 266 -173T376 144T449 501T476 864Q476 1102 430 1347T306 1802T132 2144H340Q523 1877 621 1560T720 864Z" />
<glyph unicode="*" glyph-name="uni002A" horiz-adv-x="1408" d="M608 896L624 1336L252 1100L156 1268L548 1472L156 1676L252 1844L624 1608L608 2048H800L784 1608L1156 1844L1252 1676L860 1472L1252 1268L1156 1100L784 1336L800 896H608Z" />
<glyph unicode="+" glyph-name="uni002B" horiz-adv-x="1856" d="M816 140V1460H1040V140H816ZM268 688V912H1588V688H268Z" />
<glyph unicode="," glyph-name="uni002C" horiz-adv-x="788" d="M568 280L552 172Q535 58 501 -72T429 -317T368 -500H188Q201 -436 222 -331T264 -97T300 168L312 280H568Z" />
<glyph unicode="-" glyph-name="uni002D" horiz-adv-x="1296" d="M1096 988V768H200V988H1096Z" />
<glyph unicode="." glyph-name="uni002E" horiz-adv-x="776" d="M388 -16Q314 -16 261 37T208 164Q208 238 261 291T388 344Q462 344 515 291T568 164Q568 115 544 74T479 9T388 -16Z" />
<glyph unicode="/" glyph-name="uni002F" horiz-adv-x="1004" d="M940 2144L280 -308H64L724 2144H940Z" />
<glyph unicode="0" glyph-name="uni0030" horiz-adv-x="1760" d="M880 -28Q654 -28 495 95T252 454T168 1024Q168 1356 252 1591T496 1951T880 2076Q1104 2076 1263 1952T1507 1592T1592 1024Q1592 690 1508 455T1265 96T880 -28ZM880 192Q1104 192 1228 408T1352
1024Q1352 1290 1296 1477T1134 1762T880 1860Q658 1860 533 1642T408 1024Q408 758 464 572T625 289T880 192Z" />
<glyph unicode="1" glyph-name="uni0031" horiz-adv-x="1308" d="M932 2048V0H684V1788H672L172 1456V1708L684 2048H932Z" />
<glyph unicode="2" glyph-name="uni0032" horiz-adv-x="1704" d="M212 0V180L888 920Q1007 1050 1084 1146T1198 1328T1236 1508Q1236 1616 1185 1695T1044 1817T844 1860Q726 1860 639 1812T504 1676T456 1472H220Q220 1652 303 1788T529 2000T852 2076Q1032
2076 1171 2000T1389 1795T1468 1508Q1468 1395 1428 1288T1288 1049T1012 728L552 236V220H1504V0H212Z" />
<glyph unicode="3" glyph-name="uni0033" horiz-adv-x="1792" d="M904 -28Q706 -28 552 40T307 229T208 512H460Q468 413 528 342T685 231T900 192Q1032 192 1134 238T1294 366T1352 556Q1352 669 1296 755T1132 891T868 940H704V1160H868Q990 1160 1082 1204T1227
1328T1280 1516Q1280 1620 1234 1697T1105 1817T908 1860Q802 1860 709 1822T556 1711T492 1536H252Q258 1697 349 1818T587 2008T912 2076Q1102 2076 1238 2000T1447 1798T1520 1528Q1520 1355 1430 1233T1184 1064V1048Q1378 1016 1487 884T1596 556Q1596 389
1506 257T1259 48T904 -28Z" />
<glyph unicode="4" glyph-name="uni0034" horiz-adv-x="1808" d="M164 420V624L1064 2048H1212V1732H1112L432 656V640H1644V420H164ZM1128 0V482V577V2048H1364V0H1128Z" />
<glyph unicode="5" glyph-name="uni0035" horiz-adv-x="1712" d="M852 -28Q676 -28 535 42T309 234T216 512H456Q470 373 582 283T852 192Q978 192 1076 251T1231 413T1288 648Q1288 782 1230 887T1069 1054T836 1116Q742 1117 643 1088T480 1012L248 1040L372
2048H1436V1828H580L508 1224H520Q583 1274 678 1307T876 1340Q1064 1340 1211 1251T1443 1006T1528 652Q1528 456 1441 303T1200 61T852 -28Z" />
<glyph unicode="6" glyph-name="uni0036" horiz-adv-x="1756" d="M892 -28Q766 -26 640 20T410 175T243 472T180 944Q180 1217 231 1428T379 1785T613 2005T924 2080Q1096 2080 1230 2011T1450 1820T1560 1536H1316Q1282 1677 1184 1768T924 1860Q686 1860 550
1653T412 1068H428Q484 1153 561 1213T733 1307T932 1340Q1108 1340 1254 1253T1488 1012T1576 660Q1576 470 1491 313T1253 63T892 -28ZM892 192Q1018 192 1118 255T1277 424T1336 660Q1336 787 1280 891T1125 1058T900 1120Q805 1120 723 1083T580 980T483 832T448
656Q448 534 505 428T663 257T892 192Z" />
<glyph unicode="7" glyph-name="uni0037" horiz-adv-x="1608" d="M276 0L1192 1812V1828H136V2048H1448V1816L536 0H276Z" />
<glyph unicode="8" glyph-name="uni0038" horiz-adv-x="1736" d="M868 -28Q662 -28 505 45T259 248T172 544Q171 674 223 784T365 969T568 1064V1076Q421 1114 334 1241T248 1532Q247 1688 327 1811T547 2005T868 2076Q1046 2076 1186 2005T1406 1811T1488 1532Q1487
1369 1400 1242T1168 1076V1064Q1279 1044 1368 970T1510 785T1564 544Q1563 378 1475 249T1230 46T868 -28ZM868 192Q1007 192 1108 237T1264 364T1320 556Q1319 672 1260 761T1100 901T868 952Q737 952 635 901T474 761T416 556Q415 446 469 364T626 237T868
192ZM868 1164Q978 1164 1063 1208T1198 1331T1248 1516Q1247 1620 1199 1697T1066 1817T868 1860Q753 1860 667 1818T534 1698T488 1516Q487 1410 535 1331T670 1208T868 1164Z" />
<glyph unicode="9" glyph-name="uni0039" horiz-adv-x="1756" d="M864 2080Q990 2079 1116 2032T1346 1876T1513 1580T1576 1108Q1576 835 1525 624T1377 267T1143 47T832 -28Q660 -28 526 40T306 231T196 516H440Q473 375 571 284T832 192Q1069 192 1206 399T1344
984H1328Q1272 900 1195 839T1024 745T824 712Q648 712 502 799T268 1040T180 1392Q180 1582 264 1739T502 1989T864 2080ZM864 1860Q738 1860 638 1797T479 1628T420 1392Q420 1264 476 1160T631 994T856 932Q951 932 1033 969T1176 1072T1273 1221T1308 1396Q1308
1518 1251 1624T1093 1795T864 1860Z" />
<glyph unicode=":" glyph-name="uni003A" horiz-adv-x="776" d="M388 -16Q314 -16 261 37T208 164Q208 238 261 291T388 344Q462 344 515 291T568 164Q568 115 544 74T479 9T388 -16ZM388 1124Q314 1124 261 1177T208 1304Q208 1378 261 1431T388 1484Q462 1484
515 1431T568 1304Q568 1255 544 1214T479 1149T388 1124Z" />
<glyph unicode=";" glyph-name="uni003B" horiz-adv-x="788" d="M568 280L552 172Q535 58 501 -72T429 -317T368 -500H188Q201 -436 222 -331T264 -97T300 168L312 280H568ZM424 1124Q350 1124 297 1177T244 1304Q244 1378 297 1431T424 1484Q498 1484 551 1431T604
1304Q604 1255 580 1214T515 1149T424 1124Z" />
<glyph unicode="&lt;" glyph-name="uni003C" horiz-adv-x="1856" d="M284 720V880L1572 1536V1280L584 804L592 820V780L584 796L1572 320V64L284 720Z" />
<glyph unicode="=" glyph-name="uni003D" horiz-adv-x="1856" d="M312 988V1204H1544V988H312ZM312 396V612H1544V396H312Z" />
<glyph unicode="&gt;" glyph-name="uni003E" horiz-adv-x="1856" d="M1572 720L284 64V320L1272 796L1264 780V820L1272 804L284 1280V1536L1572 880V720Z" />
<glyph unicode="?" glyph-name="uni003F" horiz-adv-x="1428" d="M524 576V588Q526 779 564 892T672 1075T840 1204Q899 1240 946 1289T1020 1404T1048 1548Q1048 1646 1002 1718T879 1829T708 1868Q626 1868 550 1834T423 1727T364 1536H112Q120 1706 200 1827T413
2012T708 2076Q884 2076 1014 2006T1216 1814T1288 1536Q1288 1426 1255 1337T1159 1178T1008 1054Q920 999 867 939T790 795T764 588V576H524ZM652 -16Q578 -16 525 37T472 164Q472 238 525 291T652 344Q726 344 779 291T832 164Q832 115 808 74T743 9T652 -16Z"
/>
<glyph unicode="@" glyph-name="uni0040" horiz-adv-x="2636" d="M1396 -540Q1090 -540 855 -457T460 -211T218 186T136 724Q136 1017 219 1248T462 1640T850 1887T1368 1972Q1649 1972 1860 1881T2214 1634T2428 1284T2500 884Q2500 739 2486 590T2427 317T2289
116T2036 40Q1966 40 1882 62T1733 135T1656 272H1644Q1620 214 1571 162T1442 79T1248 52Q1118 57 1019 110T854 256T754 471T720 736Q720 871 760 983T871 1179T1039 1313T1248 1376Q1348 1386 1430 1368T1565 1313T1632 1232H1644V1344H1856V440Q1856 356 1903
292T2040 228Q2142 228 2196 298T2271 514T2292 888Q2292 1022 2256 1152T2146 1397T1960 1598T1698 1734T1356 1784Q1121 1784 936 1712T621 1501T424 1165T356 716Q356 461 423 263T623 -71T952 -277T1404 -348Q1514 -348 1621 -327T1810 -281T1928 -244L1984
-428Q1922 -454 1823 -480T1611 -523T1396 -540ZM1280 256Q1414 256 1497 310T1618 473T1656 748Q1656 916 1614 1010T1490 1142T1288 1180Q1174 1180 1094 1121T971 963T928 748Q928 620 962 508T1073 326T1280 256Z" />
<glyph unicode="A" glyph-name="uni0041" horiz-adv-x="1904" d="M332 0H72L824 2048H1080L1832 0H1572L960 1724H944L332 0ZM428 800H1476V580H428V800Z" />
<glyph unicode="B" glyph-name="uni0042" horiz-adv-x="1832" d="M248 0V2048H964Q1178 2048 1317 1975T1524 1778T1592 1504Q1592 1372 1546 1286T1424 1150T1260 1076V1056Q1354 1050 1449 990T1608 818T1672 544Q1672 390 1602 267T1381 72T988 0H248ZM496
220H988Q1231 220 1333 314T1436 544Q1436 648 1383 736T1232 878T1000 932H496V220ZM496 1148H956Q1068 1148 1158 1192T1302 1316T1356 1504Q1356 1639 1262 1733T964 1828H496V1148Z" />
<glyph unicode="C" glyph-name="uni0043" horiz-adv-x="2048" d="M1896 1408H1648Q1626 1515 1572 1596T1440 1732T1268 1816T1072 1844Q886 1844 736 1750T497 1473T408 1024Q408 758 496 575T735 298T1072 204Q1174 204 1268 232T1439 315T1571 452T1648 640H1896Q1868
483 1794 359T1610 149T1364 17T1072 -28Q810 -28 606 100T285 464T168 1024Q168 1348 285 1584T606 1948T1072 2076Q1227 2076 1363 2031T1610 1900T1794 1690T1896 1408Z" />
<glyph unicode="D" glyph-name="uni0044" horiz-adv-x="2024" d="M880 0H248V2048H908Q1206 2048 1418 1926T1743 1575T1856 1028Q1856 708 1742 478T1410 124T880 0ZM496 220H864Q1118 220 1285 318T1534 597T1616 1028Q1616 1276 1535 1455T1293 1731T892 1828H496V220Z"
/>
<glyph unicode="E" glyph-name="uni0045" horiz-adv-x="1684" d="M248 0V2048H1484V1828H496V1136H1420V916H496V220H1500V0H248Z" />
<glyph unicode="F" glyph-name="uni0046" horiz-adv-x="1652" d="M248 0V2048H1476V1828H496V1136H1384V916H496V0H248Z" />
<glyph unicode="G" glyph-name="uni0047" horiz-adv-x="2092" d="M1648 1408Q1615 1509 1562 1589T1435 1727T1268 1814T1064 1844Q882 1844 733 1750T496 1473T408 1024Q408 758 497 575T738 298T1080 204Q1256 204 1390 279T1600 493T1676 820L1752 804H1136V1024H1916V804Q1916
551 1809 364T1513 75T1080 -28Q808 -28 603 100T283 464T168 1024Q168 1267 233 1461T419 1793T703 2003T1064 2076Q1226 2076 1366 2028T1617 1891T1802 1680T1904 1408H1648Z" />
<glyph unicode="H" glyph-name="uni0048" horiz-adv-x="2084" d="M248 0V2048H496V1136H1588V2048H1836V0H1588V916H496V0H248Z" />
<glyph unicode="I" glyph-name="uni0049" horiz-adv-x="744" d="M496 2048V0H248V2048H496Z" />
<glyph unicode="J" glyph-name="uni004A" horiz-adv-x="1528" d="M1032 2048H1280V584Q1280 388 1208 251T1005 43T696 -28Q528 -28 397 33T191 209T116 480H360Q360 393 403 329T523 228T696 192Q803 192 878 237T992 369T1032 584V2048Z" />
<glyph unicode="K" glyph-name="uni004B" horiz-adv-x="1836" d="M248 0V2048H496V1032H520L1440 2048H1764L904 1124L1764 0H1464L752 952L496 664V0H248Z" />
<glyph unicode="L" glyph-name="uni004C" horiz-adv-x="1584" d="M248 0V2048H496V220H1448V0H248Z" />
<glyph unicode="M" glyph-name="uni004D" horiz-adv-x="2504" d="M248 2048H544L1240 348H1264L1960 2048H2256V0H2024V1556H2004L1364 0H1140L500 1556H480V0H248V2048Z" />
<glyph unicode="N" glyph-name="uni004E" horiz-adv-x="2120" d="M1872 2048V0H1632L516 1608H496V0H248V2048H488L1608 436H1628V2048H1872Z" />
<glyph unicode="O" glyph-name="uni004F" horiz-adv-x="2144" d="M1976 1024Q1976 700 1859 464T1538 100T1072 -28Q810 -28 606 100T285 464T168 1024Q168 1348 285 1584T606 1948T1072 2076Q1334 2076 1538 1948T1859 1584T1976 1024ZM1736 1024Q1736 1290 1648
1473T1409 1750T1072 1844Q886 1844 736 1750T497 1473T408 1024Q408 758 496 575T735 298T1072 204Q1258 204 1408 298T1647 575T1736 1024Z" />
<glyph unicode="P" glyph-name="uni0050" horiz-adv-x="1788" d="M248 0V2048H940Q1181 2048 1334 1962T1562 1728T1636 1400Q1636 1219 1563 1071T1336 836T944 748H448V968H936Q1101 968 1201 1025T1346 1179T1392 1400Q1392 1523 1347 1620T1200 1772T932 1828H496V0H248Z"
/>
<glyph unicode="Q" glyph-name="uni0051" horiz-adv-x="2144" d="M992 640H1264L1492 340L1552 260L1892 -192H1620L1396 108L1340 184L992 640ZM1976 1024Q1976 700 1859 464T1538 100T1072 -28Q810 -28 606 100T285 464T168 1024Q168 1348 285 1584T606 1948T1072
2076Q1334 2076 1538 1948T1859 1584T1976 1024ZM1736 1024Q1736 1290 1648 1473T1409 1750T1072 1844Q886 1844 736 1750T497 1473T408 1024Q408 758 496 575T735 298T1072 204Q1258 204 1408 298T1647 575T1736 1024Z" />
<glyph unicode="R" glyph-name="uni0052" horiz-adv-x="1800" d="M248 0V2048H940Q1180 2048 1334 1967T1562 1743T1636 1420Q1636 1239 1562 1099T1335 880T944 800H384V1024H936Q1100 1024 1200 1072T1346 1208T1392 1420Q1392 1543 1346 1635T1199 1777T932
1828H496V0H248ZM1212 920L1716 0H1428L932 920H1212Z" />
<glyph unicode="S" glyph-name="uni0053" horiz-adv-x="1796" d="M1368 1536Q1350 1688 1222 1772T908 1856Q772 1856 671 1812T513 1691T456 1516Q456 1434 495 1376T597 1279T727 1216T852 1176L1060 1120Q1140 1099 1238 1062T1427 962T1577 799T1636 556Q1636
390 1550 256T1298 43T896 -36Q676 -36 516 35T264 233T160 528H416Q426 412 494 337T668 225T896 188Q1038 188 1151 234T1330 364T1396 560Q1396 662 1339 726T1189 830T988 900L736 972Q496 1041 356 1169T216 1504Q216 1676 309 1804T561 2004T916 2076Q1114
2076 1268 2006T1512 1813T1608 1536H1368Z" />
<glyph unicode="T" glyph-name="uni0054" horiz-adv-x="1808" d="M136 1828V2048H1672V1828H1028V0H780V1828H136Z" />
<glyph unicode="U" glyph-name="uni0055" horiz-adv-x="2088" d="M1592 2048H1840V692Q1840 482 1742 318T1464 59T1044 -36Q803 -36 624 58T347 317T248 692V2048H496V712Q496 562 562 446T750 263T1044 196Q1215 196 1338 262T1526 445T1592 712V2048Z" />
<glyph unicode="V" glyph-name="uni0056" horiz-adv-x="1904" d="M332 2048L940 324H964L1572 2048H1832L1080 0H824L72 2048H332Z" />
<glyph unicode="W" glyph-name="uni0057" horiz-adv-x="2672" d="M620 0L60 2048H312L740 380H760L1196 2048H1476L1912 380H1932L2360 2048H2612L2052 0H1796L1344 1632H1328L876 0H620Z" />
<glyph unicode="X" glyph-name="uni0058" horiz-adv-x="1808" d="M368 2048L896 1196H912L1440 2048H1732L1088 1024L1732 0H1440L912 836H896L368 0H76L736 1024L76 2048H368Z" />
<glyph unicode="Y" glyph-name="uni0059" horiz-adv-x="1872" d="M72 2048H356L924 1092H948L1516 2048H1800L1060 844V0H812V844L72 2048Z" />
<glyph unicode="Z" glyph-name="uni005A" horiz-adv-x="1760" d="M180 0V180L1284 1828H168V2048H1580V1868L476 220H1592V0H180Z" />
<glyph unicode="[" glyph-name="uni005B" horiz-adv-x="1020" d="M332 -416V2144H924V1948H556V-220H924V-416H332Z" />
<glyph unicode="\" glyph-name="uni005C" horiz-adv-x="1004" d="M64 2144H280L940 -308H724L64 2144Z" />
<glyph unicode="]" glyph-name="uni005D" horiz-adv-x="1020" d="M688 2144V-416H96V-220H464V1948H96V2144H688Z" />
<glyph unicode="^" glyph-name="uni005E" horiz-adv-x="1320" d="M624 1872H696V1772H624V1872ZM112 1120L524 1984H796L1208 1120H972L648 1812H672L352 1120H112Z" />
<glyph unicode="_" glyph-name="uni005F" horiz-adv-x="1272" d="M1276 0V-220H-4V0H1276Z" />
<glyph unicode="`" glyph-name="uni0060" horiz-adv-x="1400" d="M752 1744L440 2208H716L960 1744H752Z" />
<glyph unicode="a" glyph-name="uni0061" horiz-adv-x="1588" d="M668 -36Q522 -36 403 19T214 180T144 436Q144 568 196 650T335 780T527 850T740 888Q880 906 967 915T1095 948T1136 1028V1036Q1136 1184 1056 1266T812 1348Q643 1348 547 1274T412 1116L188
1196Q248 1336 348 1414T568 1524T804 1556Q878 1556 974 1539T1161 1467T1312 1304T1372 1012V0H1136V208H1124Q1100 158 1044 101T895 4T668 -36ZM704 176Q844 176 940 231T1086 373T1136 556V772Q1121 754 1071 740T955 715T828 697T728 684Q636 672 557 646T429
567T380 424Q380 301 471 239T704 176Z" />
<glyph unicode="b" glyph-name="uni0062" horiz-adv-x="1748" d="M248 0V2048H484V1292H504Q530 1332 576 1394T710 1506T948 1556Q1142 1556 1290 1459T1521 1184T1604 764Q1604 520 1521 342T1291 66T952 -32Q804 -32 715 17T578 130T504 236H476V0H248ZM480
768Q480 594 531 462T680 255T920 180Q1068 180 1167 258T1317 470T1368 768Q1368 930 1319 1060T1170 1267T920 1344Q776 1344 678 1272T530 1070T480 768Z" />
<glyph unicode="c" glyph-name="uni0063" horiz-adv-x="1572" d="M840 -32Q624 -32 468 70T228 351T144 760Q144 994 230 1173T472 1454T836 1556Q998 1556 1128 1496T1341 1328T1444 1076H1208Q1181 1181 1089 1262T840 1344Q702 1344 599 1273T438 1072T380
768Q380 590 436 458T596 253T840 180Q932 180 1007 212T1134 304T1208 448H1444Q1424 312 1346 204T1139 32T840 -32Z" />
<glyph unicode="d" glyph-name="uni0064" horiz-adv-x="1748" d="M796 -32Q604 -32 457 65T227 341T144 764Q144 1006 227 1184T458 1459T800 1556Q950 1556 1037 1507T1171 1395T1244 1292H1264V2048H1500V0H1272V236H1244Q1218 194 1170 131T1033 18T796 -32ZM828
180Q970 180 1068 254T1217 461T1268 768Q1268 940 1218 1069T1070 1271T828 1344Q678 1344 579 1268T430 1061T380 768Q380 604 430 471T580 259T828 180Z" />
<glyph unicode="e" glyph-name="uni0065" horiz-adv-x="1640" d="M860 -32Q638 -32 478 66T231 342T144 756Q144 992 230 1172T472 1454T836 1556Q956 1556 1073 1516T1286 1387T1439 1150T1496 788V688H312V892H1256Q1256 1022 1205 1124T1059 1285T836 1344Q695
1344 593 1275T435 1094T380 856V720Q380 546 440 426T609 243T860 180Q953 180 1028 206T1159 286T1244 420L1472 356Q1436 240 1351 153T1141 17T860 -32Z" />
<glyph unicode="f" glyph-name="uni0066" horiz-adv-x="1016" d="M900 1536V1336H72V1536H900ZM320 0V1748Q320 1880 382 1968T543 2100T752 2144Q839 2144 894 2130T976 2104L908 1900Q890 1906 859 1915T776 1924Q659 1924 608 1865T556 1692V0H320Z" />
<glyph unicode="g" glyph-name="uni0067" horiz-adv-x="1716" d="M836 -608Q665 -608 542 -565T338 -451T208 -300L396 -168Q428 -210 477 -264T611 -359T836 -400Q1022 -400 1143 -310T1264 -28V284H1244Q1218 242 1171 181T1035 72T796 24Q610 24 463 112T230
368T144 776Q144 1012 227 1187T458 1459T800 1556Q950 1556 1038 1507T1174 1395T1248 1292H1272V1536H1500V-44Q1500 -242 1411 -366T1171 -549T836 -608ZM828 236Q970 236 1068 301T1217 488T1268 780Q1268 946 1218 1073T1070 1272T828 1344Q678 1344 579 1268T430
1064T380 780Q380 620 430 498T580 306T828 236Z" />
<glyph unicode="h" glyph-name="uni0068" horiz-adv-x="1664" d="M452 924V0H216V2048H452V1296H472Q526 1415 634 1485T924 1556Q1081 1556 1199 1494T1382 1303T1448 976V0H1212V960Q1212 1143 1118 1243T856 1344Q740 1344 649 1295T505 1152T452 924Z" />
<glyph unicode="i" glyph-name="uni0069" horiz-adv-x="668" d="M216 0V1536H452V0H216ZM336 1792Q267 1792 218 1839T168 1952Q168 2018 217 2065T336 2112Q405 2112 454 2065T504 1952Q504 1886 455 1839T336 1792Z" />
<glyph unicode="j" glyph-name="uni006A" horiz-adv-x="668" d="M216 1536H452V-112Q452 -254 404 -358T258 -519T12 -576Q0 -576 -12 -576T-36 -576V-356Q-24 -356 -14 -356T8 -356Q116 -356 166 -293T216 -112V1536ZM588 1792Q519 1792 470 1839T420 1952Q420
2018 469 2065T588 2112Q657 2112 706 2065T756 1952Q756 1886 707 1839T588 1792Z" />
<glyph unicode="k" glyph-name="uni006B" horiz-adv-x="1532" d="M436 560L432 852H480L1152 1536H1444L728 812H708L436 560ZM216 0V2048H452V0H216ZM1192 0L592 760L760 924L1492 0H1192Z" />
<glyph unicode="l" glyph-name="uni006C" horiz-adv-x="668" d="M452 2048V0H216V2048H452Z" />
<glyph unicode="m" glyph-name="uni006D" horiz-adv-x="2448" d="M216 0V1536H444V1296H464Q512 1419 619 1487T876 1556Q1028 1556 1129 1488T1288 1296H1304Q1363 1415 1481 1485T1764 1556Q1970 1556 2101 1428T2232 1028V0H1996V1028Q1996 1198 1903 1271T1684
1344Q1522 1344 1433 1247T1344 1000V0H1104V1052Q1104 1183 1019 1263T800 1344Q708 1344 629 1295T501 1160T452 960V0H216Z" />
<glyph unicode="n" glyph-name="uni006E" horiz-adv-x="1648" d="M452 924V0H216V1536H444V1296H464Q518 1413 628 1484T912 1556Q1068 1556 1185 1493T1367 1301T1432 976V0H1196V960Q1196 1141 1102 1242T844 1344Q731 1344 643 1295T503 1152T452 924Z" />
<glyph unicode="o" glyph-name="uni006F" horiz-adv-x="1680" d="M840 -32Q632 -32 476 67T232 344T144 760Q144 1000 231 1179T475 1457T840 1556Q1048 1556 1204 1457T1448 1179T1536 760Q1536 522 1449 344T1205 67T840 -32ZM840 180Q998 180 1100 261T1251
474T1300 760Q1300 914 1251 1047T1100 1262T840 1344Q682 1344 580 1262T429 1047T380 760Q380 606 429 474T580 261T840 180Z" />
<glyph unicode="p" glyph-name="uni0070" horiz-adv-x="1716" d="M216 -576V1536H444V1292H472Q498 1332 544 1394T678 1506T916 1556Q1110 1556 1258 1459T1489 1184T1572 764Q1572 520 1489 342T1259 66T920 -32Q772 -32 683 17T546 130T472 236H452V-576H216ZM448
768Q448 594 499 462T648 255T888 180Q1036 180 1135 258T1285 470T1336 768Q1336 930 1287 1060T1138 1267T888 1344Q744 1344 646 1272T498 1070T448 768Z" />
<glyph unicode="q" glyph-name="uni0071" horiz-adv-x="1716" d="M1500 -576H1264V236H1244Q1218 194 1170 131T1033 18T796 -32Q604 -32 457 65T227 341T144 764Q144 1006 227 1184T458 1459T800 1556Q950 1556 1037 1507T1171 1395T1244 1292H1272V1536H1500V-576ZM1268
768Q1268 940 1218 1069T1070 1271T828 1344Q678 1344 579 1268T430 1061T380 768Q380 604 430 471T580 259T828 180Q970 180 1068 254T1217 461T1268 768Z" />
<glyph unicode="r" glyph-name="uni0072" horiz-adv-x="1048" d="M216 0V1536H444V1304H460Q502 1418 612 1489T860 1560Q886 1560 925 1559T984 1556V1316Q972 1319 930 1325T840 1332Q728 1332 641 1286T503 1158T452 972V0H216Z" />
<glyph unicode="s" glyph-name="uni0073" horiz-adv-x="1472" d="M1304 1192L1092 1132Q1072 1185 1034 1235T929 1319T760 1352Q619 1352 526 1288T432 1124Q432 1036 496 985T696 900L924 844Q1130 794 1231 692T1332 428Q1332 296 1257 192T1046 28T732 -32Q497
-32 343 70T148 368L372 424Q404 300 493 238T728 176Q893 176 990 246T1088 416Q1088 496 1032 550T860 632L604 692Q393 742 295 847T196 1112Q196 1242 269 1342T470 1499T760 1556Q988 1556 1118 1456T1304 1192Z" />
<glyph unicode="t" glyph-name="uni0074" horiz-adv-x="1024" d="M884 1536V1336H88V1536H884ZM320 1904H556V440Q556 340 585 291T661 225T760 208Q799 208 824 212T864 220L912 8Q888 -1 845 -10T736 -20Q636 -20 541 23T383 154T320 376V1904Z" />
<glyph unicode="u" glyph-name="uni0075" horiz-adv-x="1636" d="M1184 628V1536H1420V0H1184V260H1168Q1114 143 1000 62T712 -20Q568 -20 456 43T280 235T216 560V1536H452V576Q452 408 546 308T788 208Q876 208 967 253T1121 391T1184 628Z" />
<glyph unicode="v" glyph-name="uni0076" horiz-adv-x="1568" d="M1472 1536L904 0H664L96 1536H352L776 312H792L1216 1536H1472Z" />
<glyph unicode="w" glyph-name="uni0077" horiz-adv-x="2288" d="M564 0L96 1536H344L676 360H692L1020 1536H1272L1596 364H1612L1944 1536H2192L1724 0H1492L1156 1180H1132L796 0H564Z" />
<glyph unicode="x" glyph-name="uni0078" horiz-adv-x="1520" d="M392 1536L760 908L1128 1536H1400L904 768L1400 0H1128L760 596L392 0H120L608 768L120 1536H392Z" />
<glyph unicode="y" glyph-name="uni0079" horiz-adv-x="1570" d="M368 -572Q308 -572 261 -563T196 -544L256 -336Q385 -369 471 -335T620 -128L664 -8L96 1536H352L776 312H792L1216 1536L1474 1532L820 -224Q776 -341 711 -418T561 -534T368 -572Z" />
<glyph unicode="z" glyph-name="uni007A" horiz-adv-x="1524" d="M172 0V180L1044 1300V1316H200V1536H1348V1348L500 236V220H1376V0H172Z" />
<glyph unicode="{" glyph-name="uni007B" horiz-adv-x="1020" d="M104 860V984Q271 984 337 1054T404 1288V1608Q404 1746 430 1847T517 2014T677 2112T924 2144V1948Q808 1948 742 1912T648 1801T620 1608V1208Q620 1130 600 1066T524 956T368 885T104 860ZM924
-416Q777 -416 677 -384T517 -286T431 -119T404 120V440Q404 604 338 674T104 744V868Q266 868 367 843T524 772T599 662T620 520V120Q620 3 647 -72T741 -183T924 -220V-416ZM104 744V984H340V744H104Z" />
<glyph unicode="|" glyph-name="uni007C" horiz-adv-x="920" d="M560 2708V-660H360V2708H560Z" />
<glyph unicode="}" glyph-name="uni007D" horiz-adv-x="1020" d="M916 868V744Q749 744 683 674T616 440V120Q616 -18 590 -119T503 -286T343 -384T96 -416V-220Q212 -220 278 -184T372 -72T400 120V520Q400 598 420 662T496 772T652 843T916 868ZM96 2144Q243
2144 343 2112T503 2014T589 1847T616 1608V1288Q616 1124 682 1054T916 984V860Q754 860 653 885T496 956T421 1066T400 1208V1608Q400 1725 373 1800T279 1912T96 1948V2144ZM916 984V744H680V984H916Z" />
<glyph unicode="~" glyph-name="uni007E" horiz-adv-x="1856" d="M232 608Q229 774 286 875T434 1022T628 1068Q730 1068 814 1024T1008 884Q1082 820 1126 794T1224 768Q1310 768 1360 830T1408 1012H1624Q1627 846 1571 745T1422 598T1228 552Q1126 552 1042
596T848 736Q775 800 730 826T632 852Q551 852 499 796T448 608H232Z" />
<glyph unicode="&#xa0;" glyph-name="uni00A0" horiz-adv-x="792" />
<glyph unicode="&#xa1;" glyph-name="uni00A1" horiz-adv-x="784" d="M392 1544Q466 1544 519 1491T572 1364Q572 1290 519 1237T392 1184Q318 1184 265 1237T212 1364Q212 1414 236 1454T302 1519T392 1544ZM528 -520H256L276 952H508L528 -520Z" />
<glyph unicode="&#xa2;" glyph-name="uni00A2" horiz-adv-x="1572" d="M744 -256V1780H908V-256H744ZM840 -32Q624 -32 468 70T228 351T144 760Q144 994 230 1173T472 1454T836 1556Q998 1556 1128 1496T1341 1328T1444 1076H1208Q1181 1181 1089 1262T840 1344Q702
1344 599 1273T438 1072T380 768Q380 590 436 458T596 253T840 180Q932 180 1007 212T1134 304T1208 448H1444Q1424 312 1346 204T1139 32T840 -32Z" />
<glyph unicode="&#xa3;" glyph-name="uni00A3" horiz-adv-x="1776" d="M1540 0H184V220H1540V0ZM1108 796H176V1024H1108V796ZM612 1428L644 560Q650 434 622 328T512 164L264 220Q324 220 356 280T399 420T408 560L380 1428Q372 1646 459 1790T689 2005T988 2076Q1131
2076 1248 2025T1445 1886T1557 1691T1560 1468L1328 1532Q1342 1636 1297 1708T1171 1818T1000 1856Q904 1856 815 1811T669 1671T612 1428Z" />
<glyph unicode="&#xa4;" glyph-name="uni00A4" horiz-adv-x="2036" d="M1012 -28Q843 -28 695 37T435 221T259 496T196 836Q196 1019 259 1175T434 1449T695 1631T1012 1696Q1182 1696 1330 1631T1591 1449T1768 1176T1832 836Q1832 653 1768 496T1592 221T1331
38T1012 -28ZM1012 192Q1135 192 1242 242T1431 382T1558 587T1604 836Q1604 1014 1525 1160T1311 1393T1012 1480Q848 1480 713 1393T497 1160T416 836Q416 660 496 514T712 280T1012 192ZM1592 1272L1432 1440L1708 1724L1872 1556L1592 1272ZM1708 -20L1432
264L1592 428L1872 148L1708 -20ZM324 -20L164 148L440 428L604 264L324 -20ZM440 1272L164 1556L324 1724L604 1440L440 1272Z" />
<glyph unicode="&#xa5;" glyph-name="uni00A5" horiz-adv-x="1544" d="M316 2048L840 908L648 828L40 2048H316ZM704 908L1228 2048H1504L896 828L704 908ZM896 1076V0H648V1076H896ZM1344 1020V840H200V1020H1344ZM1344 624V444H200V624H1344Z" />
<glyph unicode="&#xa6;" glyph-name="uni00A6" horiz-adv-x="748" d="M264 552H484V-384H264V552ZM484 2048V1116H264V2048H484Z" />
<glyph unicode="&#xa7;" glyph-name="uni00A7" horiz-adv-x="1552" d="M1272 1564H1044Q1044 1693 979 1778T772 1864Q682 1864 625 1831T540 1748T512 1648Q512 1588 546 1536T630 1442T728 1372L1116 1144Q1155 1122 1205 1085T1301 995T1377 869T1408 704Q1408
630 1370 556T1268 425T1128 344V340Q1200 277 1234 195T1268 16Q1268 -132 1196 -227T1008 -369T760 -416Q602 -416 479 -354T286 -176T216 100H448Q448 -47 536 -125T760 -204Q871 -204 955 -150T1040 16Q1040 92 1006 143T922 229T824 292L436 516Q397 539 347
576T251 667T175 794T144 960Q144 1032 180 1107T279 1241T424 1324V1332Q361 1395 323 1473T284 1648Q284 1772 347 1868T520 2020T772 2076Q926 2076 1038 2011T1211 1830T1272 1564ZM1188 704Q1188 762 1161 810T1091 897T1000 964L608 1192Q564 1218 507 1193T407
1106T364 960Q364 864 422 803T556 696L928 480Q970 456 1031 480T1140 563T1188 704Z" />
<glyph unicode="&#xa8;" glyph-name="uni00A8" horiz-adv-x="1664" d="M544 1792Q481 1792 433 1840T384 1952Q384 2021 432 2066T544 2112Q613 2112 658 2067T704 1952Q704 1889 659 1841T544 1792ZM1120 1792Q1057 1792 1009 1840T960 1952Q960 2021 1008 2066T1120
2112Q1189 2112 1234 2067T1280 1952Q1280 1889 1235 1841T1120 1792Z" />
<glyph unicode="&#xa9;" glyph-name="uni00A9" horiz-adv-x="2576" d="M704 1024Q704 1188 784 1323T999 1538T1298 1618Q1440 1618 1560 1557T1760 1391T1858 1152H1616Q1596 1255 1505 1320T1298 1386Q1198 1386 1116 1337T985 1206T936 1024Q936 924 985 842T1116
711T1298 662Q1414 662 1494 727T1596 896H1838Q1819 763 1745 658T1556 491T1298 430Q1134 430 999 510T784 725T704 1024ZM1288 -32Q1070 -32 879 50T542 277T314 614T232 1024Q233 1243 315 1434T543 1770T879 1998T1288 2080Q1507 2080 1698 1998T2034 1771T2261
1434T2344 1024Q2345 805 2263 614T2036 278T1699 50T1288 -32ZM1288 200Q1459 200 1609 264T1872 441T2049 703T2112 1023Q2111 1194 2047 1344T1870 1607T1608 1784T1288 1848Q1118 1848 969 1784T707 1607T530 1344T464 1023Q463 854 527 705T704 442T967 265T1288
200Z" />
<glyph unicode="&#xaa;" glyph-name="uni00AA" horiz-adv-x="1264" d="M800 1184V1652Q800 1739 761 1783T640 1828Q550 1828 499 1793T448 1692L212 1712Q212 1850 328 1941T640 2032Q820 2032 930 1937T1040 1652V1220Q1040 1154 1047 1093T1076 972H832Q817
1020 809 1075T800 1184ZM860 1584V1424H660Q540 1424 486 1378T432 1272Q432 1215 470 1184T592 1152Q648 1152 705 1177T801 1238T840 1308L864 1148Q834 1082 754 1017T532 952Q367 952 278 1037T188 1264Q188 1417 305 1500T660 1584H860Z" />
<glyph unicode="&#xab;" glyph-name="uni00AB" horiz-adv-x="1520" d="M800 220H592L188 820V840H416L800 220ZM800 1448L416 828H188V848L592 1448H800ZM1312 220H1104L700 820V840H928L1312 220ZM1312 1448L928 828H700V848L1104 1448H1312Z" />
<glyph unicode="&#xac;" glyph-name="uni00AC" horiz-adv-x="1520" d="M1336 1108V872H188V1108H1336ZM1336 1000V516H1060V1000H1336Z" />
<glyph unicode="&#xad;" glyph-name="uni00AD" horiz-adv-x="1296" d="M1096 988V768H200V988H1096Z" />
<glyph unicode="&#xae;" glyph-name="uni00AE" horiz-adv-x="1888" d="M664 916V1654H1038Q1083 1654 1136 1629T1226 1551T1264 1418Q1264 1337 1225 1281T1131 1195T1026 1166H756V1286H976Q1009 1286 1047 1319T1086 1418Q1086 1486 1048 1510T980 1534H826V916H664ZM1110
1264L1294 916H1116L936 1264H1110ZM944 476Q778 476 633 538T378 710T206 965T144 1276Q144 1442 206 1587T378 1842T633 2014T944 2076Q1110 2076 1255 2014T1510 1842T1682 1587T1744 1276Q1744 1110 1682 965T1510 710T1255 538T944 476ZM944 668Q1112 668
1250 750T1470 970T1552 1276Q1552 1444 1470 1582T1250 1802T944 1884Q776 1884 638 1802T418 1582T336 1276Q336 1108 418 970T638 750T944 668Z" />
<glyph unicode="&#xaf;" glyph-name="uni00AF" horiz-adv-x="1264" d="M1100 2048V1848H164V2048H1100Z" />
<glyph unicode="&#xb0;" glyph-name="uni00B0" horiz-adv-x="1280" d="M640 1144Q513 1144 409 1206T242 1372T180 1604Q180 1731 242 1835T408 2002T640 2064Q767 2064 871 2002T1038 1836T1100 1604Q1100 1477 1038 1373T872 1206T640 1144ZM640 1344Q712 1344
771 1379T865 1473T900 1604Q900 1676 865 1735T771 1829T640 1864Q568 1864 509 1829T415 1735T380 1604Q380 1532 415 1473T509 1379T640 1344Z" />
<glyph unicode="&#xb1;" glyph-name="uni00B1" horiz-adv-x="1856" d="M284 96V320H1572V96H284ZM284 904V1128H1572V904H284ZM816 496V1536H1040V496H816Z" />
<glyph unicode="&#xb2;" glyph-name="uni00B2" horiz-adv-x="1184" d="M140 1024V1180L608 1596Q678 1658 725 1707T796 1802T820 1900Q820 1990 751 2043T580 2096Q472 2096 406 2039T340 1888H132Q132 2059 259 2163T584 2268Q716 2268 816 2221T972 2091T1028
1904Q1028 1822 995 1752T892 1607T712 1436L452 1208V1200H1064V1024H140Z" />
<glyph unicode="&#xb3;" glyph-name="uni00B3" horiz-adv-x="1212" d="M604 1008Q466 1008 358 1054T186 1181T120 1368H340Q343 1287 418 1238T604 1188Q721 1188 796 1242T872 1380Q872 1464 792 1518T576 1572H476V1732H576Q687 1732 761 1782T836 1916Q836
1994 773 2045T608 2096Q506 2096 433 2046T356 1912H148Q150 2018 211 2098T376 2223T608 2268Q738 2268 837 2224T992 2103T1048 1928Q1048 1820 974 1751T792 1664V1656Q939 1635 1017 1555T1096 1364Q1096 1262 1033 1182T859 1055T604 1008Z" />
<glyph unicode="&#xb4;" glyph-name="uni00B4" horiz-adv-x="1400" d="M560 1744L804 2208H1080L768 1744H560Z" />
<glyph unicode="&#xb5;" glyph-name="uni00B5" horiz-adv-x="1752" d="M216 -576V1536H452V628Q452 503 504 409T652 261T876 208Q1004 208 1099 261T1247 409T1300 628V1536H1536V0H1300V228H1288Q1226 107 1115 44T876 -20Q748 -20 638 43T464 228H452V-576H216Z" />
<glyph unicode="&#xb6;" glyph-name="uni00B6" horiz-adv-x="1688" d="M1440 1828H944V760H828Q610 760 459 843T230 1072T152 1404Q152 1588 230 1733T459 1963T828 2048H1440V1828ZM1192 0V2048H1440V0H1192Z" />
<glyph unicode="&#xb7;" glyph-name="uni00B7" horiz-adv-x="776" d="M388 716Q314 716 261 769T208 896Q208 970 261 1023T388 1076Q462 1076 515 1023T568 896Q568 847 544 806T479 741T388 716Z" />
<glyph unicode="&#xb8;" glyph-name="uni00B8" horiz-adv-x="752" d="M280 8H476L460 -72Q538 -84 603 -137T668 -308Q668 -437 562 -518T248 -600L240 -444Q333 -444 394 -415T456 -316Q456 -247 405 -222T240 -188L280 8Z" />
<glyph unicode="&#xb9;" glyph-name="uni00B9" horiz-adv-x="882" d="M438 1024V2034H428L112 1824V2036L438 2252H646V1024H438Z" />
<glyph unicode="&#xba;" glyph-name="uni00BA" horiz-adv-x="1264" d="M156 1436V1544Q156 1686 214 1796T379 1969T632 2032Q854 2032 981 1895T1108 1544V1436Q1108 1294 1051 1185T888 1014T636 952Q414 952 285 1087T156 1436ZM396 1544V1436Q396 1313 456
1233T636 1152Q753 1152 810 1232T868 1436V1544Q868 1664 810 1746T632 1828Q515 1828 456 1746T396 1544Z" />
<glyph unicode="&#xbb;" glyph-name="uni00BB" horiz-adv-x="1520" d="M188 220L572 840H800V820L396 220H188ZM188 1448H396L800 848V828H572L188 1448ZM700 220L1084 840H1312V820L908 220H700ZM700 1448H908L1312 848V828H1084L700 1448Z" />
<glyph unicode="&#xbc;" glyph-name="uni00BC" horiz-adv-x="2488" d="M384 0L1792 2048H2020L612 0H384ZM374 1216V2086H364L96 1908V2120L374 2304H582V1216H374ZM1468 196V360L1992 1088H2136V860H2048L1684 368V364H2404V196H1468ZM2052 0V248L2056 320V1088H2252V0H2052Z"
/>
<glyph unicode="&#xbd;" glyph-name="uni00BD" horiz-adv-x="2608" d="M384 0L1792 2048H2020L612 0H384ZM374 1216V2086H364L96 1908V2120L374 2304H582V1216H374ZM1652 0V152L2080 512Q2176 593 2220 649T2264 768Q2264 846 2203 893T2052 940Q1962 940 1901
891T1840 760H1640Q1640 913 1755 1008T2056 1104Q2242 1104 2353 1009T2464 772Q2464 700 2436 638T2344 509T2176 356L1956 176V168H2504V0H1652Z" />
<glyph unicode="&#xbe;" glyph-name="uni00BE" horiz-adv-x="2672" d="M568 0L1976 2048H2204L796 0H568ZM1652 196V360L2176 1088H2320V860H2232L1868 368V364H2588V196H1652ZM2236 0V248L2240 320V1088H2436V0H2236ZM548 1200Q420 1200 320 1243T162 1361T104
1532H316Q316 1463 382 1418T548 1372Q647 1372 711 1419T776 1536Q776 1608 705 1652T520 1696H432V1844H520Q619 1844 685 1887T752 2000Q752 2066 695 2111T548 2156Q458 2156 395 2111T332 1996H128Q130 2090 185 2163T334 2278T548 2320Q668 2320 760 2281T904
2173T956 2016Q956 1923 890 1861T716 1784V1776Q851 1758 923 1689T996 1520Q996 1428 939 1356T781 1242T548 1200Z" />
<glyph unicode="&#xbf;" glyph-name="uni00BF" horiz-adv-x="1428" d="M776 1548Q850 1548 903 1495T956 1368Q956 1294 903 1241T776 1188Q702 1188 649 1241T596 1368Q596 1418 620 1458T686 1523T776 1548ZM904 956V944Q903 754 865 641T756 458T588 328Q530
293 483 243T408 129T380 -16Q380 -114 426 -186T549 -297T720 -336Q802 -336 878 -302T1005 -195T1064 -4H1316Q1309 -174 1228 -295T1015 -480T720 -544Q544 -544 414 -474T212 -282T140 -4Q140 107 173 196T269 355T420 478Q508 533 561 593T638 737T664 944V956H904Z"
/>
<glyph unicode="&#xc0;" glyph-name="uni00C0" horiz-adv-x="1904" d="M332 0H72L824 2048H1080L1832 0H1572L960 1724H944L332 0ZM428 800H1476V580H428V800ZM852 2256L540 2720H816L1060 2256H852Z" />
<glyph unicode="&#xc1;" glyph-name="uni00C1" horiz-adv-x="1904" d="M332 0H72L824 2048H1080L1832 0H1572L960 1724H944L332 0ZM428 800H1476V580H428V800ZM844 2256L1088 2720H1364L1052 2256H844Z" />
<glyph unicode="&#xc2;" glyph-name="uni00C2" horiz-adv-x="1904" d="M332 0H72L824 2048H1080L1832 0H1572L960 1724H944L332 0ZM428 800H1476V580H428V800ZM744 2232H520V2248L844 2664H1060L1384 2248V2232H1160L952 2512L744 2232Z" />
<glyph unicode="&#xc3;" glyph-name="uni00C3" horiz-adv-x="1904" d="M332 0H72L824 2048H1080L1832 0H1572L960 1724H944L332 0ZM428 800H1476V580H428V800ZM644 2252L460 2260Q460 2413 547 2510T764 2608Q821 2608 865 2589T949 2544T1031 2500T1128 2480Q1185
2480 1224 2524T1264 2632L1444 2616Q1444 2460 1357 2368T1140 2276Q1071 2276 1026 2295T946 2340T872 2384T776 2404Q719 2404 682 2360T644 2252Z" />
<glyph unicode="&#xc4;" glyph-name="uni00C4" horiz-adv-x="1904" d="M332 0H72L824 2048H1080L1832 0H1572L960 1724H944L332 0ZM428 800H1476V580H428V800ZM664 2304Q601 2304 553 2352T504 2464Q504 2533 552 2578T664 2624Q733 2624 778 2579T824 2464Q824
2401 779 2353T664 2304ZM1240 2304Q1177 2304 1129 2352T1080 2464Q1080 2533 1128 2578T1240 2624Q1309 2624 1354 2579T1400 2464Q1400 2401 1355 2353T1240 2304Z" />
<glyph unicode="&#xc5;" glyph-name="uni00C5" horiz-adv-x="1904" d="M332 0H72L824 2048H1080L1832 0H1572L960 1724H944L332 0ZM428 800H1476V580H428V800ZM952 2184Q861 2184 786 2226T665 2339T620 2496Q620 2582 665 2653T785 2766T952 2808Q1044 2808 1119
2766T1239 2653T1284 2496Q1284 2410 1239 2339T1119 2226T952 2184ZM952 2336Q1020 2336 1068 2382T1116 2496Q1116 2563 1068 2609T952 2656Q884 2656 836 2610T788 2496Q788 2429 836 2383T952 2336Z" />
<glyph unicode="&#xc6;" glyph-name="uni00C6" horiz-adv-x="2788" d="M72 0L1064 2048H2588V1828H1600V1136H2524V916H1600V220H2604V0H1352V1828H1204L344 0H72ZM508 580V800H1476V580H508Z" />
<glyph unicode="&#xc7;" glyph-name="uni00C7" horiz-adv-x="2048" d="M1896 1408H1648Q1626 1515 1572 1596T1440 1732T1268 1816T1072 1844Q886 1844 736 1750T497 1473T408 1024Q408 758 496 575T735 298T1072 204Q1174 204 1268 232T1439 315T1571 452T1648
640H1896Q1868 483 1794 359T1610 149T1364 17T1072 -28Q810 -28 606 100T285 464T168 1024Q168 1348 285 1584T606 1948T1072 2076Q1227 2076 1363 2031T1610 1900T1794 1690T1896 1408ZM968 -8H1164L1148 -88Q1226 -100 1291 -153T1356 -324Q1356 -453 1250 -534T936
-616L928 -460Q1021 -460 1082 -431T1144 -332Q1144 -263 1093 -238T928 -204L968 -8Z" />
<glyph unicode="&#xc8;" glyph-name="uni00C8" horiz-adv-x="1684" d="M248 0V2048H1484V1828H496V1136H1420V916H496V220H1500V0H248ZM764 2256L452 2720H728L972 2256H764Z" />
<glyph unicode="&#xc9;" glyph-name="uni00C9" horiz-adv-x="1684" d="M248 0V2048H1484V1828H496V1136H1420V916H496V220H1500V0H248ZM756 2256L1000 2720H1276L964 2256H756Z" />
<glyph unicode="&#xca;" glyph-name="uni00CA" horiz-adv-x="1684" d="M248 0V2048H1484V1828H496V1136H1420V916H496V220H1500V0H248ZM656 2232H432V2248L756 2664H972L1296 2248V2232H1072L864 2512L656 2232Z" />
<glyph unicode="&#xcb;" glyph-name="uni00CB" horiz-adv-x="1684" d="M248 0V2048H1484V1828H496V1136H1420V916H496V220H1500V0H248ZM576 2304Q513 2304 465 2352T416 2464Q416 2533 464 2578T576 2624Q645 2624 690 2579T736 2464Q736 2401 691 2353T576 2304ZM1152
2304Q1089 2304 1041 2352T992 2464Q992 2533 1040 2578T1152 2624Q1221 2624 1266 2579T1312 2464Q1312 2401 1267 2353T1152 2304Z" />
<glyph unicode="&#xcc;" glyph-name="uni00CC" horiz-adv-x="744" d="M496 2048V0H248V2048H496ZM272 2256L-40 2720H236L480 2256H272Z" />
<glyph unicode="&#xcd;" glyph-name="uni00CD" horiz-adv-x="744" d="M496 2048V0H248V2048H496ZM264 2256L508 2720H784L472 2256H264Z" />
<glyph unicode="&#xce;" glyph-name="uni00CE" horiz-adv-x="744" d="M496 2048V0H248V2048H496ZM164 2232H-60V2248L264 2664H480L804 2248V2232H580L372 2512L164 2232Z" />
<glyph unicode="&#xcf;" glyph-name="uni00CF" horiz-adv-x="744" d="M496 2048V0H248V2048H496ZM84 2304Q21 2304 -27 2352T-76 2464Q-76 2533 -28 2578T84 2624Q153 2624 198 2579T244 2464Q244 2401 199 2353T84 2304ZM660 2304Q597 2304 549 2352T500 2464Q500
2533 548 2578T660 2624Q729 2624 774 2579T820 2464Q820 2401 775 2353T660 2304Z" />
<glyph unicode="&#xd0;" glyph-name="uni00D0" horiz-adv-x="2024" d="M880 0H248V2048H908Q1206 2048 1418 1926T1743 1575T1856 1028Q1856 708 1742 478T1410 124T880 0ZM496 220H864Q1118 220 1285 318T1534 597T1616 1028Q1616 1276 1535 1455T1293 1731T892
1828H496V220ZM-68 964V1148H812V964H-68Z" />
<glyph unicode="&#xd1;" glyph-name="uni00D1" horiz-adv-x="2120" d="M1872 2048V0H1632L516 1608H496V0H248V2048H488L1608 436H1628V2048H1872ZM752 2232L568 2240Q568 2393 655 2490T872 2588Q929 2588 973 2569T1057 2524T1139 2480T1236 2460Q1293 2460
1332 2504T1372 2612L1552 2596Q1552 2440 1465 2348T1248 2256Q1179 2256 1134 2275T1054 2320T980 2364T884 2384Q827 2384 790 2340T752 2232Z" />
<glyph unicode="&#xd2;" glyph-name="uni00D2" horiz-adv-x="2144" d="M1976 1024Q1976 700 1859 464T1538 100T1072 -28Q810 -28 606 100T285 464T168 1024Q168 1348 285 1584T606 1948T1072 2076Q1334 2076 1538 1948T1859 1584T1976 1024ZM1736 1024Q1736 1290
1648 1473T1409 1750T1072 1844Q886 1844 736 1750T497 1473T408 1024Q408 758 496 575T735 298T1072 204Q1258 204 1408 298T1647 575T1736 1024ZM972 2256L660 2720H936L1180 2256H972Z" />
<glyph unicode="&#xd3;" glyph-name="uni00D3" horiz-adv-x="2144" d="M1976 1024Q1976 700 1859 464T1538 100T1072 -28Q810 -28 606 100T285 464T168 1024Q168 1348 285 1584T606 1948T1072 2076Q1334 2076 1538 1948T1859 1584T1976 1024ZM1736 1024Q1736 1290
1648 1473T1409 1750T1072 1844Q886 1844 736 1750T497 1473T408 1024Q408 758 496 575T735 298T1072 204Q1258 204 1408 298T1647 575T1736 1024ZM964 2256L1208 2720H1484L1172 2256H964Z" />
<glyph unicode="&#xd4;" glyph-name="uni00D4" horiz-adv-x="2144" d="M1976 1024Q1976 700 1859 464T1538 100T1072 -28Q810 -28 606 100T285 464T168 1024Q168 1348 285 1584T606 1948T1072 2076Q1334 2076 1538 1948T1859 1584T1976 1024ZM1736 1024Q1736 1290
1648 1473T1409 1750T1072 1844Q886 1844 736 1750T497 1473T408 1024Q408 758 496 575T735 298T1072 204Q1258 204 1408 298T1647 575T1736 1024ZM864 2232H640V2248L964 2664H1180L1504 2248V2232H1280L1072 2512L864 2232Z" />
<glyph unicode="&#xd5;" glyph-name="uni00D5" horiz-adv-x="2144" d="M1976 1024Q1976 700 1859 464T1538 100T1072 -28Q810 -28 606 100T285 464T168 1024Q168 1348 285 1584T606 1948T1072 2076Q1334 2076 1538 1948T1859 1584T1976 1024ZM1736 1024Q1736 1290
1648 1473T1409 1750T1072 1844Q886 1844 736 1750T497 1473T408 1024Q408 758 496 575T735 298T1072 204Q1258 204 1408 298T1647 575T1736 1024ZM764 2252L580 2260Q580 2413 667 2510T884 2608Q941 2608 985 2589T1069 2544T1151 2500T1248 2480Q1305 2480 1344
2524T1384 2632L1564 2616Q1564 2460 1477 2368T1260 2276Q1191 2276 1146 2295T1066 2340T992 2384T896 2404Q839 2404 802 2360T764 2252Z" />
<glyph unicode="&#xd6;" glyph-name="uni00D6" horiz-adv-x="2144" d="M1976 1024Q1976 700 1859 464T1538 100T1072 -28Q810 -28 606 100T285 464T168 1024Q168 1348 285 1584T606 1948T1072 2076Q1334 2076 1538 1948T1859 1584T1976 1024ZM1736 1024Q1736 1290
1648 1473T1409 1750T1072 1844Q886 1844 736 1750T497 1473T408 1024Q408 758 496 575T735 298T1072 204Q1258 204 1408 298T1647 575T1736 1024ZM784 2304Q721 2304 673 2352T624 2464Q624 2533 672 2578T784 2624Q853 2624 898 2579T944 2464Q944 2401 899 2353T784
2304ZM1360 2304Q1297 2304 1249 2352T1200 2464Q1200 2533 1248 2578T1360 2624Q1429 2624 1474 2579T1520 2464Q1520 2401 1475 2353T1360 2304Z" />
<glyph unicode="&#xd7;" glyph-name="uni00D7" horiz-adv-x="1856" d="M1416 160L288 1288L440 1440L1568 312L1416 160ZM440 160L288 312L1416 1440L1568 1288L440 160Z" />
<glyph unicode="&#xd8;" glyph-name="uni00D8" horiz-adv-x="2144" d="M432 -84L280 20L1704 2128L1856 2024L432 -84ZM1976 1024Q1976 700 1859 464T1538 100T1072 -28Q810 -28 606 100T285 464T168 1024Q168 1348 285 1584T606 1948T1072 2076Q1334 2076 1538
1948T1859 1584T1976 1024ZM1736 1024Q1736 1290 1648 1473T1409 1750T1072 1844Q886 1844 736 1750T497 1473T408 1024Q408 758 496 575T735 298T1072 204Q1258 204 1408 298T1647 575T1736 1024Z" />
<glyph unicode="&#xd9;" glyph-name="uni00D9" horiz-adv-x="2088" d="M1592 2048H1840V692Q1840 482 1742 318T1464 59T1044 -36Q803 -36 624 58T347 317T248 692V2048H496V712Q496 562 562 446T750 263T1044 196Q1215 196 1338 262T1526 445T1592 712V2048ZM944
2256L632 2720H908L1152 2256H944Z" />
<glyph unicode="&#xda;" glyph-name="uni00DA" horiz-adv-x="2088" d="M1592 2048H1840V692Q1840 482 1742 318T1464 59T1044 -36Q803 -36 624 58T347 317T248 692V2048H496V712Q496 562 562 446T750 263T1044 196Q1215 196 1338 262T1526 445T1592 712V2048ZM936
2256L1180 2720H1456L1144 2256H936Z" />
<glyph unicode="&#xdb;" glyph-name="uni00DB" horiz-adv-x="2088" d="M1592 2048H1840V692Q1840 482 1742 318T1464 59T1044 -36Q803 -36 624 58T347 317T248 692V2048H496V712Q496 562 562 446T750 263T1044 196Q1215 196 1338 262T1526 445T1592 712V2048ZM836
2232H612V2248L936 2664H1152L1476 2248V2232H1252L1044 2512L836 2232Z" />
<glyph unicode="&#xdc;" glyph-name="uni00DC" horiz-adv-x="2088" d="M1592 2048H1840V692Q1840 482 1742 318T1464 59T1044 -36Q803 -36 624 58T347 317T248 692V2048H496V712Q496 562 562 446T750 263T1044 196Q1215 196 1338 262T1526 445T1592 712V2048ZM756
2304Q693 2304 645 2352T596 2464Q596 2533 644 2578T756 2624Q825 2624 870 2579T916 2464Q916 2401 871 2353T756 2304ZM1332 2304Q1269 2304 1221 2352T1172 2464Q1172 2533 1220 2578T1332 2624Q1401 2624 1446 2579T1492 2464Q1492 2401 1447 2353T1332 2304Z"
/>
<glyph unicode="&#xdd;" glyph-name="uni00DD" horiz-adv-x="1872" d="M72 2048H356L924 1092H948L1516 2048H1800L1060 844V0H812V844L72 2048ZM828 2256L1072 2720H1348L1036 2256H828Z" />
<glyph unicode="&#xde;" glyph-name="uni00DE" horiz-adv-x="1776" d="M232 2048H480V0H232V2048ZM348 1624H876Q1094 1624 1245 1545T1474 1332T1552 1036Q1552 874 1474 741T1245 528T876 448H348V668H876Q1018 668 1116 710T1265 834T1316 1032Q1316 1148 1265
1231T1116 1359T876 1404H348V1624Z" />
<glyph unicode="&#xdf;" glyph-name="uni00DF" horiz-adv-x="1716" d="M248 0V1524Q248 1695 323 1819T532 2009T840 2076Q1010 2076 1145 2012T1358 1830T1436 1548Q1436 1373 1346 1254T1112 1084V1064Q1307 1045 1431 912T1556 564Q1556 402 1482 275T1274
74T960 0H736V220H964Q1073 220 1152 264T1276 386T1320 564Q1320 722 1213 825T924 928H744V1152H872Q973 1152 1046 1203T1160 1337T1200 1512Q1200 1656 1105 1756T844 1856Q689 1856 587 1764T484 1524V0H248Z" />
<glyph unicode="&#xe0;" glyph-name="uni00E0" horiz-adv-x="1588" d="M668 -36Q522 -36 403 19T214 180T144 436Q144 568 196 650T335 780T527 850T740 888Q880 906 967 915T1095 948T1136 1028V1036Q1136 1184 1056 1266T812 1348Q643 1348 547 1274T412 1116L188
1196Q248 1336 348 1414T568 1524T804 1556Q878 1556 974 1539T1161 1467T1312 1304T1372 1012V0H1136V208H1124Q1100 158 1044 101T895 4T668 -36ZM704 176Q844 176 940 231T1086 373T1136 556V772Q1121 754 1071 740T955 715T828 697T728 684Q636 672 557 646T429
567T380 424Q380 301 471 239T704 176ZM976 1744L664 2208H940L1184 1744H976Z" />
<glyph unicode="&#xe1;" glyph-name="uni00E1" horiz-adv-x="1588" d="M668 -36Q522 -36 403 19T214 180T144 436Q144 568 196 650T335 780T527 850T740 888Q880 906 967 915T1095 948T1136 1028V1036Q1136 1184 1056 1266T812 1348Q643 1348 547 1274T412 1116L188
1196Q248 1336 348 1414T568 1524T804 1556Q878 1556 974 1539T1161 1467T1312 1304T1372 1012V0H1136V208H1124Q1100 158 1044 101T895 4T668 -36ZM704 176Q844 176 940 231T1086 373T1136 556V772Q1121 754 1071 740T955 715T828 697T728 684Q636 672 557 646T429
567T380 424Q380 301 471 239T704 176ZM712 1744L956 2208H1232L920 1744H712Z" />
<glyph unicode="&#xe2;" glyph-name="uni00E2" horiz-adv-x="1588" d="M668 -36Q522 -36 403 19T214 180T144 436Q144 568 196 650T335 780T527 850T740 888Q880 906 967 915T1095 948T1136 1028V1036Q1136 1184 1056 1266T812 1348Q643 1348 547 1274T412 1116L188
1196Q248 1336 348 1414T568 1524T804 1556Q878 1556 974 1539T1161 1467T1312 1304T1372 1012V0H1136V208H1124Q1100 158 1044 101T895 4T668 -36ZM704 176Q844 176 940 231T1086 373T1136 556V772Q1121 754 1071 740T955 715T828 697T728 684Q636 672 557 646T429
567T380 424Q380 301 471 239T704 176ZM612 1720H388V1736L712 2152H928L1252 1736V1720H1028L820 2000L612 1720Z" />
<glyph unicode="&#xe3;" glyph-name="uni00E3" horiz-adv-x="1588" d="M668 -36Q522 -36 403 19T214 180T144 436Q144 568 196 650T335 780T527 850T740 888Q880 906 967 915T1095 948T1136 1028V1036Q1136 1184 1056 1266T812 1348Q643 1348 547 1274T412 1116L188
1196Q248 1336 348 1414T568 1524T804 1556Q878 1556 974 1539T1161 1467T1312 1304T1372 1012V0H1136V208H1124Q1100 158 1044 101T895 4T668 -36ZM704 176Q844 176 940 231T1086 373T1136 556V772Q1121 754 1071 740T955 715T828 697T728 684Q636 672 557 646T429
567T380 424Q380 301 471 239T704 176ZM512 1720L328 1728Q328 1881 415 1978T632 2076Q689 2076 733 2057T817 2012T899 1968T996 1948Q1053 1948 1092 1992T1132 2100L1312 2084Q1312 1928 1225 1836T1008 1744Q939 1744 894 1763T814 1808T740 1852T644 1872Q587
1872 550 1828T512 1720Z" />
<glyph unicode="&#xe4;" glyph-name="uni00E4" horiz-adv-x="1588" d="M668 -36Q522 -36 403 19T214 180T144 436Q144 568 196 650T335 780T527 850T740 888Q880 906 967 915T1095 948T1136 1028V1036Q1136 1184 1056 1266T812 1348Q643 1348 547 1274T412 1116L188
1196Q248 1336 348 1414T568 1524T804 1556Q878 1556 974 1539T1161 1467T1312 1304T1372 1012V0H1136V208H1124Q1100 158 1044 101T895 4T668 -36ZM704 176Q844 176 940 231T1086 373T1136 556V772Q1121 754 1071 740T955 715T828 697T728 684Q636 672 557 646T429
567T380 424Q380 301 471 239T704 176ZM788 1792Q725 1792 677 1840T628 1952Q628 2021 676 2066T788 2112Q857 2112 902 2067T948 1952Q948 1889 903 1841T788 1792ZM1364 1792Q1301 1792 1253 1840T1204 1952Q1204 2021 1252 2066T1364 2112Q1433 2112 1478 2067T1524
1952Q1524 1889 1479 1841T1364 1792Z" />
<glyph unicode="&#xe5;" glyph-name="uni00E5" horiz-adv-x="1588" d="M668 -36Q522 -36 403 19T214 180T144 436Q144 568 196 650T335 780T527 850T740 888Q880 906 967 915T1095 948T1136 1028V1036Q1136 1184 1056 1266T812 1348Q643 1348 547 1274T412 1116L188
1196Q248 1336 348 1414T568 1524T804 1556Q878 1556 974 1539T1161 1467T1312 1304T1372 1012V0H1136V208H1124Q1100 158 1044 101T895 4T668 -36ZM704 176Q844 176 940 231T1086 373T1136 556V772Q1121 754 1071 740T955 715T828 697T728 684Q636 672 557 646T429
567T380 424Q380 301 471 239T704 176ZM820 1708Q718 1708 636 1753T505 1875T456 2048Q456 2144 504 2224T635 2352T820 2400Q922 2400 1003 2352T1132 2224T1180 2048Q1180 1952 1133 1875T1004 1753T820 1708ZM820 1860Q904 1860 958 1918T1012 2048Q1012 2123
958 2183T820 2244Q736 2244 682 2184T628 2048Q628 1976 682 1918T820 1860Z" />
<glyph unicode="&#xe6;" glyph-name="uni00E6" horiz-adv-x="2604" d="M1824 -32Q1569 -32 1400 93T1192 420L1236 1184Q1311 1358 1453 1457T1800 1556Q1920 1556 2037 1516T2250 1387T2403 1150T2460 788V688H1276V892H2220Q2220 1022 2169 1124T2023 1285T1800
1344Q1659 1344 1557 1275T1399 1094T1344 856V720Q1344 546 1405 426T1574 243T1824 180Q1917 180 1992 206T2123 286T2208 420L2436 356Q2400 240 2315 153T2105 17T1824 -32ZM704 176Q844 176 940 231T1086 373T1136 556V772Q1121 754 1071 740T955 715T828
697T728 684Q636 672 557 646T429 567T380 424Q380 301 471 239T704 176ZM668 -36Q522 -36 403 19T214 180T144 436Q144 568 196 650T335 780T528 851T740 888Q880 906 967 916T1095 949T1136 1028V1036Q1136 1183 1055 1265T812 1348Q644 1348 548 1274T412 1116L188
1196Q248 1336 348 1414T568 1524T804 1556Q866 1556 944 1545T1101 1499T1245 1398T1344 1220L1252 280H1232Q1202 194 1120 122T920 7T668 -36Z" />
<glyph unicode="&#xe7;" glyph-name="uni00E7" horiz-adv-x="1572" d="M840 -32Q624 -32 468 70T228 351T144 760Q144 994 230 1173T472 1454T836 1556Q998 1556 1128 1496T1341 1328T1444 1076H1208Q1181 1181 1089 1262T840 1344Q702 1344 599 1273T438 1072T380
768Q380 590 436 458T596 253T840 180Q932 180 1007 212T1134 304T1208 448H1444Q1424 312 1346 204T1139 32T840 -32ZM728 8H924L908 -72Q986 -84 1051 -137T1116 -308Q1116 -437 1010 -518T696 -600L688 -444Q781 -444 842 -415T904 -316Q904 -247 853 -222T688
-188L728 8Z" />
<glyph unicode="&#xe8;" glyph-name="uni00E8" horiz-adv-x="1640" d="M860 -32Q638 -32 478 66T231 342T144 756Q144 992 230 1172T472 1454T836 1556Q956 1556 1073 1516T1286 1387T1439 1150T1496 788V688H312V892H1256Q1256 1022 1205 1124T1059 1285T836
1344Q695 1344 593 1275T435 1094T380 856V720Q380 546 440 426T609 243T860 180Q953 180 1028 206T1159 286T1244 420L1472 356Q1436 240 1351 153T1141 17T860 -32ZM980 1744L668 2208H944L1188 1744H980Z" />
<glyph unicode="&#xe9;" glyph-name="uni00E9" horiz-adv-x="1640" d="M860 -32Q638 -32 478 66T231 342T144 756Q144 992 230 1172T472 1454T836 1556Q956 1556 1073 1516T1286 1387T1439 1150T1496 788V688H312V892H1256Q1256 1022 1205 1124T1059 1285T836
1344Q695 1344 593 1275T435 1094T380 856V720Q380 546 440 426T609 243T860 180Q953 180 1028 206T1159 286T1244 420L1472 356Q1436 240 1351 153T1141 17T860 -32ZM716 1744L960 2208H1236L924 1744H716Z" />
<glyph unicode="&#xea;" glyph-name="uni00EA" horiz-adv-x="1640" d="M860 -32Q638 -32 478 66T231 342T144 756Q144 992 230 1172T472 1454T836 1556Q956 1556 1073 1516T1286 1387T1439 1150T1496 788V688H312V892H1256Q1256 1022 1205 1124T1059 1285T836
1344Q695 1344 593 1275T435 1094T380 856V720Q380 546 440 426T609 243T860 180Q953 180 1028 206T1159 286T1244 420L1472 356Q1436 240 1351 153T1141 17T860 -32ZM616 1720H392V1736L716 2152H932L1256 1736V1720H1032L824 2000L616 1720Z" />
<glyph unicode="&#xeb;" glyph-name="uni00EB" horiz-adv-x="1640" d="M860 -32Q638 -32 478 66T231 342T144 756Q144 992 230 1172T472 1454T836 1556Q956 1556 1073 1516T1286 1387T1439 1150T1496 788V688H312V892H1256Q1256 1022 1205 1124T1059 1285T836
1344Q695 1344 593 1275T435 1094T380 856V720Q380 546 440 426T609 243T860 180Q953 180 1028 206T1159 286T1244 420L1472 356Q1436 240 1351 153T1141 17T860 -32ZM792 1792Q729 1792 681 1840T632 1952Q632 2021 680 2066T792 2112Q861 2112 906 2067T952 1952Q952
1889 907 1841T792 1792ZM1368 1792Q1305 1792 1257 1840T1208 1952Q1208 2021 1256 2066T1368 2112Q1437 2112 1482 2067T1528 1952Q1528 1889 1483 1841T1368 1792Z" />
<glyph unicode="&#xec;" glyph-name="uni00EC" horiz-adv-x="668" d="M216 0V1536H452V0H216ZM236 1744L-76 2208H200L444 1744H236Z" />
<glyph unicode="&#xed;" glyph-name="uni00ED" horiz-adv-x="668" d="M216 0V1536H452V0H216ZM228 1744L472 2208H748L436 1744H228Z" />
<glyph unicode="&#xee;" glyph-name="uni00EE" horiz-adv-x="668" d="M216 0V1536H452V0H216ZM128 1720H-96V1736L228 2152H444L768 1736V1720H544L336 2000L128 1720Z" />
<glyph unicode="&#xef;" glyph-name="uni00EF" horiz-adv-x="668" d="M216 0V1536H452V0H216ZM48 1792Q-15 1792 -63 1840T-112 1952Q-112 2021 -64 2066T48 2112Q117 2112 162 2067T208 1952Q208 1889 163 1841T48 1792ZM624 1792Q561 1792 513 1840T464 1952Q464
2021 512 2066T624 2112Q693 2112 738 2067T784 1952Q784 1889 739 1841T624 1792Z" />
<glyph unicode="&#xf0;" glyph-name="uni00F0" horiz-adv-x="1632" d="M1328 1948L508 1552L440 1700L1260 2096L1328 1948ZM816 -32Q610 -32 459 63T226 324T144 704Q144 922 226 1088T447 1347T756 1440Q872 1440 959 1400T1106 1300T1200 1180H1220Q1187 1273
1130 1379T984 1595T765 1811T456 2008L560 2176Q728 2089 892 1954T1192 1640T1407 1238T1488 752Q1488 504 1404 329T1169 61T816 -32ZM816 180Q962 180 1061 248T1210 431T1260 688Q1260 818 1215 946T1072 1159T816 1244Q670 1244 573 1169T428 971T380 704Q380
568 425 449T566 255T816 180Z" />
<glyph unicode="&#xf1;" glyph-name="uni00F1" horiz-adv-x="1648" d="M452 924V0H216V1536H444V1296H464Q518 1413 628 1484T912 1556Q1068 1556 1185 1493T1367 1301T1432 976V0H1196V960Q1196 1141 1102 1242T844 1344Q731 1344 643 1295T503 1152T452 924ZM516
1720L332 1728Q332 1881 419 1978T636 2076Q693 2076 737 2057T821 2012T903 1968T1000 1948Q1057 1948 1096 1992T1136 2100L1316 2084Q1316 1928 1229 1836T1012 1744Q943 1744 898 1763T818 1808T744 1852T648 1872Q591 1872 554 1828T516 1720Z" />
<glyph unicode="&#xf2;" glyph-name="uni00F2" horiz-adv-x="1680" d="M840 -32Q632 -32 476 67T232 344T144 760Q144 1000 231 1179T475 1457T840 1556Q1048 1556 1204 1457T1448 1179T1536 760Q1536 522 1449 344T1205 67T840 -32ZM840 180Q998 180 1100 261T1251
474T1300 760Q1300 914 1251 1047T1100 1262T840 1344Q682 1344 580 1262T429 1047T380 760Q380 606 429 474T580 261T840 180ZM996 1744L684 2208H960L1204 1744H996Z" />
<glyph unicode="&#xf3;" glyph-name="uni00F3" horiz-adv-x="1680" d="M840 -32Q632 -32 476 67T232 344T144 760Q144 1000 231 1179T475 1457T840 1556Q1048 1556 1204 1457T1448 1179T1536 760Q1536 522 1449 344T1205 67T840 -32ZM840 180Q998 180 1100 261T1251
474T1300 760Q1300 914 1251 1047T1100 1262T840 1344Q682 1344 580 1262T429 1047T380 760Q380 606 429 474T580 261T840 180ZM732 1744L976 2208H1252L940 1744H732Z" />
<glyph unicode="&#xf4;" glyph-name="uni00F4" horiz-adv-x="1680" d="M840 -32Q632 -32 476 67T232 344T144 760Q144 1000 231 1179T475 1457T840 1556Q1048 1556 1204 1457T1448 1179T1536 760Q1536 522 1449 344T1205 67T840 -32ZM840 180Q998 180 1100 261T1251
474T1300 760Q1300 914 1251 1047T1100 1262T840 1344Q682 1344 580 1262T429 1047T380 760Q380 606 429 474T580 261T840 180ZM632 1720H408V1736L732 2152H948L1272 1736V1720H1048L840 2000L632 1720Z" />
<glyph unicode="&#xf5;" glyph-name="uni00F5" horiz-adv-x="1680" d="M840 -32Q632 -32 476 67T232 344T144 760Q144 1000 231 1179T475 1457T840 1556Q1048 1556 1204 1457T1448 1179T1536 760Q1536 522 1449 344T1205 67T840 -32ZM840 180Q998 180 1100 261T1251
474T1300 760Q1300 914 1251 1047T1100 1262T840 1344Q682 1344 580 1262T429 1047T380 760Q380 606 429 474T580 261T840 180ZM532 1720L348 1728Q348 1881 435 1978T652 2076Q709 2076 753 2057T837 2012T919 1968T1016 1948Q1073 1948 1112 1992T1152 2100L1332
2084Q1332 1928 1245 1836T1028 1744Q959 1744 914 1763T834 1808T760 1852T664 1872Q607 1872 570 1828T532 1720Z" />
<glyph unicode="&#xf6;" glyph-name="uni00F6" horiz-adv-x="1680" d="M840 -32Q632 -32 476 67T232 344T144 760Q144 1000 231 1179T475 1457T840 1556Q1048 1556 1204 1457T1448 1179T1536 760Q1536 522 1449 344T1205 67T840 -32ZM840 180Q998 180 1100 261T1251
474T1300 760Q1300 914 1251 1047T1100 1262T840 1344Q682 1344 580 1262T429 1047T380 760Q380 606 429 474T580 261T840 180ZM552 1792Q489 1792 441 1840T392 1952Q392 2021 440 2066T552 2112Q621 2112 666 2067T712 1952Q712 1889 667 1841T552 1792ZM1128
1792Q1065 1792 1017 1840T968 1952Q968 2021 1016 2066T1128 2112Q1197 2112 1242 2067T1288 1952Q1288 1889 1243 1841T1128 1792Z" />
<glyph unicode="&#xf7;" glyph-name="uni00F7" horiz-adv-x="1856" d="M1568 912V688H288V912H1568ZM928 104Q853 104 801 156T748 284Q748 356 800 408T928 460Q1000 460 1052 408T1104 284Q1104 209 1052 157T928 104ZM928 1140Q878 1140 837 1164T772 1229T748
1320Q748 1392 800 1444T928 1496Q1000 1496 1052 1444T1104 1320Q1104 1245 1052 1193T928 1140Z" />
<glyph unicode="&#xf8;" glyph-name="uni00F8" horiz-adv-x="1680" d="M380 -84L228 20L1300 1608L1452 1504L380 -84ZM840 -32Q632 -32 476 67T232 344T144 760Q144 1000 231 1179T475 1457T840 1556Q1048 1556 1204 1457T1448 1179T1536 760Q1536 522 1449 344T1205
67T840 -32ZM840 180Q998 180 1100 261T1251 474T1300 760Q1300 914 1251 1047T1100 1262T840 1344Q682 1344 580 1262T429 1047T380 760Q380 606 429 474T580 261T840 180Z" />
<glyph unicode="&#xf9;" glyph-name="uni00F9" horiz-adv-x="1636" d="M1184 628V1536H1420V0H1184V260H1168Q1114 143 1000 62T712 -20Q568 -20 456 43T280 235T216 560V1536H452V576Q452 408 546 308T788 208Q876 208 967 253T1121 391T1184 628ZM976 1744L664
2208H940L1184 1744H976Z" />
<glyph unicode="&#xfa;" glyph-name="uni00FA" horiz-adv-x="1636" d="M1184 628V1536H1420V0H1184V260H1168Q1114 143 1000 62T712 -20Q568 -20 456 43T280 235T216 560V1536H452V576Q452 408 546 308T788 208Q876 208 967 253T1121 391T1184 628ZM712 1744L956
2208H1232L920 1744H712Z" />
<glyph unicode="&#xfb;" glyph-name="uni00FB" horiz-adv-x="1636" d="M1184 628V1536H1420V0H1184V260H1168Q1114 143 1000 62T712 -20Q568 -20 456 43T280 235T216 560V1536H452V576Q452 408 546 308T788 208Q876 208 967 253T1121 391T1184 628ZM612 1720H388V1736L712
2152H928L1252 1736V1720H1028L820 2000L612 1720Z" />
<glyph unicode="&#xfc;" glyph-name="uni00FC" horiz-adv-x="1636" d="M1184 628V1536H1420V0H1184V260H1168Q1114 143 1000 62T712 -20Q568 -20 456 43T280 235T216 560V1536H452V576Q452 408 546 308T788 208Q876 208 967 253T1121 391T1184 628ZM788 1792Q725
1792 677 1840T628 1952Q628 2021 676 2066T788 2112Q857 2112 902 2067T948 1952Q948 1889 903 1841T788 1792ZM1364 1792Q1301 1792 1253 1840T1204 1952Q1204 2021 1252 2066T1364 2112Q1433 2112 1478 2067T1524 1952Q1524 1889 1479 1841T1364 1792Z" />
<glyph unicode="&#xfd;" glyph-name="uni00FD" horiz-adv-x="1570" d="M368 -572Q308 -572 261 -563T196 -544L256 -336Q385 -369 471 -335T620 -128L664 -8L96 1536H352L776 312H792L1216 1536L1474 1532L820 -224Q776 -341 711 -418T561 -534T368 -572ZM676
1744L920 2208H1196L884 1744H676Z" />
<glyph unicode="&#xfe;" glyph-name="uni00FE" horiz-adv-x="1716" d="M216 2048H452V1172L392 784L452 288V-576H216V2048ZM356 1292H472Q498 1332 544 1394T678 1506T916 1556Q1110 1556 1258 1459T1489 1184T1572 764Q1572 520 1489 342T1259 66T920 -32Q772
-32 683 17T546 130T472 236H356V1292ZM1336 768Q1336 930 1287 1060T1138 1267T888 1344Q744 1344 646 1272T498 1070T448 768Q448 594 499 462T648 255T888 180Q1036 180 1135 258T1285 470T1336 768Z" />
<glyph unicode="&#xff;" glyph-name="uni00FF" horiz-adv-x="1570" d="M368 -572Q308 -572 261 -563T196 -544L256 -336Q385 -369 471 -335T620 -128L664 -8L96 1536H352L776 312H792L1216 1536L1474 1532L820 -224Q776 -341 711 -418T561 -534T368 -572ZM752
1792Q689 1792 641 1840T592 1952Q592 2021 640 2066T752 2112Q821 2112 866 2067T912 1952Q912 1889 867 1841T752 1792ZM1328 1792Q1265 1792 1217 1840T1168 1952Q1168 2021 1216 2066T1328 2112Q1397 2112 1442 2067T1488 1952Q1488 1889 1443 1841T1328 1792Z"
/>
<glyph unicode="&#x2013;" glyph-name="uni2013" horiz-adv-x="1408" d="M1408 988V768H0V988H1408Z" />
<glyph unicode="&#x2014;" glyph-name="uni2014" horiz-adv-x="2816" d="M2816 988V768H0V988H2816Z" />
<glyph unicode="&#x2018;" glyph-name="uni2018" horiz-adv-x="560" d="M136 1408V1588Q136 1670 165 1762T251 1941T388 2092L516 1988Q453 1898 407 1801T360 1592V1408H136Z" />
<glyph unicode="&#x2019;" glyph-name="uni2019" horiz-adv-x="520" d="M424 2048V1868Q424 1786 395 1694T309 1515T172 1364L44 1468Q107 1558 153 1655T200 1864V2048H424Z" />
<glyph unicode="&#x201a;" glyph-name="uni201A" horiz-adv-x="560" d="M420 256V76Q420 -6 391 -98T305 -277T168 -428L40 -324Q103 -234 149 -137T196 72V256H420Z" />
<glyph unicode="&#x201c;" glyph-name="uni201C" horiz-adv-x="1072" d="M136 1408V1588Q136 1670 165 1762T251 1941T388 2092L516 1988Q453 1898 407 1801T360 1592V1408H136ZM648 1408V1588Q648 1670 677 1762T763 1941T900 2092L1028 1988Q965 1898 919 1801T872
1592V1408H648Z" />
<glyph unicode="&#x201d;" glyph-name="uni201D" horiz-adv-x="1072" d="M424 2048V1868Q424 1786 395 1694T309 1515T172 1364L44 1468Q107 1558 153 1655T200 1864V2048H424ZM936 2048V1868Q936 1786 907 1694T821 1515T684 1364L556 1468Q619 1558 665 1655T712
1864V2048H936Z" />
<glyph unicode="&#x201e;" glyph-name="uni201E" horiz-adv-x="1072" d="M424 256V76Q424 -6 395 -98T309 -277T172 -428L44 -324Q107 -234 153 -137T200 72V256H424ZM936 256V76Q936 -6 907 -98T821 -277T684 -428L556 -324Q619 -234 665 -137T712 72V256H936Z" />
<glyph unicode="&#x2022;" glyph-name="uni2022" horiz-adv-x="1584" d="M792 376Q671 376 571 435T412 595T352 816Q352 938 411 1037T571 1196T792 1256Q914 1256 1013 1197T1172 1038T1232 816Q1232 695 1173 595T1014 436T792 376Z" />
<glyph unicode="&#x2039;" glyph-name="uni2039" horiz-adv-x="1008" d="M800 220H592L188 820V840H416L800 220ZM800 1448L416 828H188V848L592 1448H800Z" />
<glyph unicode="&#x203a;" glyph-name="uni203A" horiz-adv-x="1008" d="M188 220L572 840H800V820L396 220H188ZM188 1448H396L800 848V828H572L188 1448Z" />
</font>
</defs>
</svg>
